<?xml version="1.0" standalone="no"?>
<!DOCTYPE svg PUBLIC "-//W3C//DTD SVG 1.1//EN" "http://www.w3.org/Graphics/SVG/1.1/DTD/svg11.dtd" >
<svg>
<metadata>
Created by FontForge 20090914 at Fri Mar  6 07:09:04 2020
 By www-data
&#194;&#169;2009 Commercial Type.
</metadata>
<defs>
<font id="Graphik-Bold" horiz-adv-x="600" >
  <font-face 
    font-family="Graphik Bold"
    font-weight="700"
    font-stretch="normal"
    units-per-em="1000"
    panose-1="2 11 8 3 3 2 2 6 2 3"
    ascent="825"
    descent="-175"
    x-height="523"
    cap-height="715"
    bbox="-243 -232 1198 1137"
    underline-thickness="50"
    underline-position="-150"
    unicode-range="U+0020-U+FB02"
  />
<missing-glyph horiz-adv-x="519" 
 />
    <glyph glyph-name="f_f" unicode="ff" horiz-adv-x="716" 
d="M80 0v401h-66v122h66v40c0 63.333 18 111 54 143s86 48 150 48c28 0 54.667 -3.33301 80 -10v-131c-15.333 4.66699 -31.333 7 -48 7c-19.333 0 -33.833 -5.16699 -43.5 -15.5s-14.5 -24.166 -14.5 -41.499v-40h152v46c0 63.333 18.333 111.166 55 143.499
s86.667 48.5 150 48.5c25.333 0 52.666 -3.66699 81.999 -11v-131c-15.333 4.66699 -31.666 7 -48.999 7c-39.333 0 -59 -19 -59 -57v-46h106v-122h-106v-401h-179v401h-152v-401h-178z" />
    <glyph glyph-name=".notdef" horiz-adv-x="519" 
 />
    <glyph glyph-name="space" unicode=" " horiz-adv-x="197" 
 />
    <glyph glyph-name="exclam" unicode="!" horiz-adv-x="334" 
d="M167 -11c-29.333 0 -54.333 9.66699 -75 29s-31 42.666 -31 69.999s10.333 50.833 31 70.5s45.667 29.5 75 29.5s54.5 -9.83301 75.5 -29.5s31.5 -43.167 31.5 -70.5s-10.5 -50.666 -31.5 -69.999s-46.167 -29 -75.5 -29zM93 235l-27 480h202l-27 -480h-148z" />
    <glyph glyph-name="quotedbl" unicode="&#x22;" horiz-adv-x="462" 
d="M61 440l-20 275h168l-21 -275h-127zM274 440l-21 275h169l-21 -275h-127z" />
    <glyph glyph-name="numbersign" unicode="#" horiz-adv-x="576" 
d="M270 99l21 142h-62l-21 -142h-121l21 142h-69v141h90l11 76h-77v134h97l18 123h121l-18 -123h62l19 123h121l-19 -123h72v-134h-92l-11 -76h79v-141h-100l-21 -142h-121zM261 458l-11 -76h62l11 76h-62z" />
    <glyph glyph-name="dollar" unicode="$" horiz-adv-x="647" 
d="M288 -135v125c-84 6 -148.167 29.833 -192.5 71.5s-68.166 96.5 -71.499 164.5h185c6 -52.667 32.333 -84 79 -94v146c-88 12.667 -151.333 36.5 -190 71.5s-58 86.833 -58 155.5c0 60.667 22.333 111 67 151s105 62.667 181 68v89h78v-90
c150.667 -12.667 231.667 -84.667 243 -216h-181c-6.66699 40.667 -27.334 65.667 -62.001 75v-138c83.333 -12 146.333 -34.333 189 -67s64 -83.334 64 -152.001c0 -64.667 -21.333 -118.667 -64 -162s-105.667 -67.666 -189 -72.999v-125h-78zM433 203
c0 17.333 -4.66699 30.5 -14 39.5s-27 16.5 -53 22.5v-133c44.667 9.33301 67 33 67 71zM220 520c0 -18 4.83301 -31.833 14.5 -41.5s27.5 -17.167 53.5 -22.5v128c-45.333 -8 -68 -29.333 -68 -64z" />
    <glyph glyph-name="percent" unicode="%" horiz-adv-x="827" 
d="M215 468c18 0 32 6.83301 42 20.5s15 32.5 15 56.5s-5 42.667 -15 56s-24 20 -42 20c-18.667 0 -33.167 -6.66699 -43.5 -20s-15.5 -31.666 -15.5 -54.999c0 -24.667 5.16699 -43.834 15.5 -57.501s24.833 -20.5 43.5 -20.5zM214 364c-58 0 -104 17 -138 51
s-51 77.333 -51 130c0 50.667 18 93 54 127s81.333 51 136 51c54 0 99 -16.5 135 -49.5s54 -74.833 54 -125.5c0 -53.333 -17.333 -97.333 -52 -132s-80.667 -52 -138 -52zM118 0l496 715h98l-496 -715h-98zM613 93c38.667 0 58 25.667 58 77c0 23.333 -5 41.666 -15 54.999
s-24.333 20 -43 20c-18 0 -32.167 -6.66699 -42.5 -20s-15.5 -31.666 -15.5 -54.999c0 -24.667 5.16699 -43.667 15.5 -57s24.5 -20 42.5 -20zM612 -12c-58 0 -104.001 17 -138.001 51s-51 77.333 -51 130c0 50.667 18.167 93 54.5 127s81.5 51 135.5 51
c54.667 0 99.834 -16.333 135.501 -49s53.5 -74.667 53.5 -126c0 -53.333 -17.333 -97.333 -52 -132s-80.667 -52 -138 -52z" />
    <glyph glyph-name="ampersand" unicode="&#x26;" horiz-adv-x="762" 
d="M747 372l-115.001 -225.999l119 -146h-233l-42 52c-53.333 -42.667 -117.666 -64 -192.999 -64c-76.667 0 -137.667 19.167 -183 57.5s-68 91.166 -68 158.499c0 88.667 52.333 158 157 208c-29.333 41.333 -44 83 -44 125c0 58.667 21.833 104.5 65.5 137.5
s98.5 49.5 164.5 49.5c60.667 0 112 -14.667 154 -44s63 -70.333 63 -123c0 -76.667 -47.667 -135.667 -143 -177l90 -110l52 102h156zM313.999 137.001c28 0 51.333 10.001 70 30.001l-113 136c-32 -18.667 -48 -44.334 -48 -77.001c0 -26.667 7.83301 -48.167 23.5 -64.5
s38.167 -24.5 67.5 -24.5zM320.999 535.002c0 -21.333 13.667 -48 41 -80c47.333 22.667 71 51.667 71 87c0 16 -4.83301 29.167 -14.5 39.5s-22.5 15.5 -38.5 15.5c-17.333 0 -31.5 -5.5 -42.5 -16.5s-16.5 -26.167 -16.5 -45.5z" />
    <glyph glyph-name="quotesingle" unicode="'" horiz-adv-x="256" 
d="M61 440l-20 275h175l-21 -275h-134z" />
    <glyph glyph-name="parenleft" unicode="(" horiz-adv-x="356" 
d="M204 -148c-110.667 133.333 -166 287 -166 461c0 174.667 55.333 328.667 166 462h140c-90 -139.333 -135 -293.333 -135 -462c0 -168 45 -321.667 135 -461h-140z" />
    <glyph glyph-name="parenright" unicode=")" horiz-adv-x="356" 
d="M11 -147c90 137.333 135 291.334 135 462.001c0 170 -45 323.667 -135 461h140c111.333 -132.667 167 -286.334 167 -461.001c0 -175.333 -55.667 -329.333 -167 -462h-140z" />
    <glyph glyph-name="asterisk" unicode="*" horiz-adv-x="440" 
d="M165 370l-108 77l89 90l-117 13l34 123l110 -53l-24 123h143l-24 -123l109 53l35 -123l-118 -13l89 -90l-107 -77l-56 115z" />
    <glyph glyph-name="plus" unicode="+" horiz-adv-x="570" 
d="M213 83v192h-176v130h176v192h144v-192h176v-130h-176v-192h-144z" />
    <glyph glyph-name="comma" unicode="," horiz-adv-x="306" 
d="M122 -122l-106 41l84 263l166 -59z" />
    <glyph glyph-name="hyphen" unicode="-" horiz-adv-x="382" 
d="M51 218v135h280v-135h-280z" />
    <glyph glyph-name="period" unicode="." horiz-adv-x="299" 
d="M148 -11c-29.333 0 -53.666 9.83301 -72.999 29.5s-29 43.5 -29 71.5s9.66699 51.833 29 71.5s43.666 29.5 72.999 29.5c30 0 55 -9.83301 75 -29.5s30 -43.5 30 -71.5s-10 -51.833 -30 -71.5s-45 -29.5 -75 -29.5z" />
    <glyph glyph-name="slash" unicode="/" horiz-adv-x="434" 
d="M-24 -148l317 924h143l-318 -924h-142z" />
    <glyph glyph-name="zero" unicode="0" horiz-adv-x="732" 
d="M368 147c43.333 0 74.667 16 94 48s29 81.667 29 149v29c0 66 -10 115.333 -30 148s-51.667 49 -95 49c-83.333 0 -125 -65.667 -125 -197v-30c0 -66.667 10.167 -116 30.5 -148s52.5 -48 96.5 -48zM362.001 -12c-100.667 0 -180.166 31.1689 -238.499 93.502
s-87.5 149.166 -87.5 260.499v30c0 110 30.667 196.333 92 259s140.666 94 237.999 94c98 0 177.5 -30.167 238.5 -90.5s91.5 -146.5 91.5 -258.5v-28c0 -112.667 -30 -200.834 -90 -264.501s-141.333 -95.5 -244 -95.5z" />
    <glyph glyph-name="one" unicode="1" horiz-adv-x="450" 
d="M168 0v513l-136 -84v171l164 115h177v-715h-205z" />
    <glyph glyph-name="two" unicode="2" horiz-adv-x="615" 
d="M8 0l0.00195312 29.001l250 265c40 42.667 69.667 79.167 89 109.5s29 59.5 29 87.5c0 24.667 -6.5 44.167 -19.5 58.5s-31.833 21.5 -56.5 21.5c-53.333 0 -84 -38.667 -92 -116h-186c3.33301 88 30.166 155 80.499 201s119.5 69 207.5 69
c85.333 0 151.333 -20.667 198 -62s70 -96 70 -164c0 -46 -11.333 -88.333 -34 -127s-56.334 -79.334 -101.001 -122.001l-100 -97h240v-153h-575z" />
    <glyph glyph-name="three" unicode="3" horiz-adv-x="652" 
d="M326 -12c-192 0 -291.332 82.332 -297.999 246.999h182c6.66699 -66 41.667 -99 105 -99c62.667 0 94 27 94 81c0 56 -31.333 84 -94 84h-57v127h53c63.333 0 95 26.333 95 79c0 22 -7 39.333 -21 52s-34.333 19 -61 19c-54.667 0 -86.334 -30.333 -95.001 -91h-181
c4.66699 72.667 31 130.5 79 173.5s115.333 64.5 202 64.5c83.333 0 149 -17.667 197 -53s72 -83 72 -143c0 -39.333 -10.5 -72 -31.5 -98s-50.833 -44.667 -89.5 -56c42 -8.66699 75.667 -27.167 101 -55.5s38 -63.833 38 -106.5
c0 -69.333 -25.167 -124.166 -75.5 -164.499s-121.833 -60.5 -214.5 -60.5z" />
    <glyph glyph-name="four" unicode="4" horiz-adv-x="678" 
d="M366 0v137h-348v77l298 501h247v-437h92v-141h-92v-137h-197zM211 278h160v283z" />
    <glyph glyph-name="five" unicode="5" horiz-adv-x="631" 
d="M307 -12c-90.667 0 -159.502 21.6699 -206.502 65.0029s-71.833 100.666 -74.5 171.999h186c4 -27.333 12.833 -48 26.5 -62s35.834 -21 66.501 -21c28 0 49.333 9.33301 64 28s22 43 22 73c0 32 -8.5 57 -25.5 75s-40.833 27 -71.5 27
c-49.333 0 -88.666 -17 -117.999 -51h-122l15 421h482v-150h-334l-4 -158c35.333 50.667 91 76 167 76c66.667 0 119.5 -21.333 158.5 -64s58.5 -102.334 58.5 -179.001s-25.833 -137.834 -77.5 -183.501s-122.5 -68.5 -212.5 -68.5z" />
    <glyph glyph-name="six" unicode="6" horiz-adv-x="674" 
d="M351 -12c-108.667 0 -188.331 31.168 -238.998 93.501s-76 147.833 -76 256.5v19c0 114 30.167 203.833 90.5 269.5s137.166 98.5 230.499 98.5c80.667 0 144.167 -17.833 190.5 -53.5s73.166 -88.167 80.499 -157.5h-188c-8 40 -33.333 60 -76 60
c-38.667 0 -68.667 -16.333 -90 -49s-33 -79.334 -35 -140.001c36 55.333 91.667 83 167 83c68 0 124.5 -20.167 169.5 -60.5s67.5 -96.5 67.5 -168.5c0 -76 -26.167 -136.833 -78.5 -182.5s-123.5 -68.5 -213.5 -68.5zM349.003 133.001c28.667 0 51.667 9.66699 69 29
s26 44.333 26 75s-8.5 55.5 -25.5 74.5s-40.167 28.5 -69.5 28.5s-52.833 -9.5 -70.5 -28.5s-26.5 -43.167 -26.5 -72.5c0 -32 8.83301 -57.667 26.5 -77s41.167 -29 70.5 -29z" />
    <glyph glyph-name="seven" unicode="7" horiz-adv-x="576" 
d="M112 0l200 549h-288v166h544v-21l-248 -694h-208z" />
    <glyph glyph-name="eight" unicode="8" horiz-adv-x="657" 
d="M328 -12c-92 0 -164.669 18.502 -218.002 55.502s-80 89.833 -80 158.5c0 41.333 11.167 77.166 33.5 107.499s54.5 52.833 96.5 67.5c-66.667 30 -100 79.333 -100 148c0 62 25.833 110.833 77.5 146.5s115.834 53.5 192.501 53.5c78.667 0 143.334 -17.667 194.001 -53
s76 -84 76 -146c0 -68 -33.667 -117.333 -101 -148c85.333 -29.333 128 -86.333 128 -171c0 -68.667 -27 -122.334 -81 -161.001s-126.667 -58 -218 -58zM328.998 132.002c28.667 0 52.001 8.16699 70.001 24.5s27 38.5 27 66.5s-8.83301 50.167 -26.5 66.5
s-40.834 24.5 -69.501 24.5s-52.167 -8.16699 -70.5 -24.5s-27.5 -38.5 -27.5 -66.5s9 -50.167 27 -66.5s41.333 -24.5 70 -24.5zM330.999 430.002c24 0 44 7.16699 60 21.5s24 33.5 24 57.5c0 23.333 -8.16699 42.166 -24.5 56.499s-36.5 21.5 -60.5 21.5
s-44 -7.16699 -60 -21.5s-24 -33.166 -24 -56.499c0 -24 8.16699 -43.167 24.5 -57.5s36.5 -21.5 60.5 -21.5z" />
    <glyph glyph-name="nine" unicode="9" horiz-adv-x="675" 
d="M322 -11c-84 0 -150.168 18.332 -198.501 54.999s-76.166 89.334 -83.499 158.001h188c8 -40.667 36 -61 84 -61c41.333 0 71.833 15.333 91.5 46s30.167 77.334 31.5 140.001c-35.333 -56 -89.333 -84 -162 -84c-71.333 0 -129.5 20.167 -174.5 60.5
s-67.5 97.166 -67.5 170.499c0 76 26.5 137 79.5 183s124.5 69 214.5 69c103.333 0 181.333 -31.5 234 -94.5s79 -148.167 79 -255.5v-24c0 -116 -27.167 -205.5 -81.5 -268.5s-132.5 -94.5 -234.5 -94.5zM321.999 374.999c29.333 0 53 9.50098 71 28.501s27 42.833 27 71.5
c0 32 -8.83301 57.833 -26.5 77.5s-41.5 29.5 -71.5 29.5c-28 0 -50.833 -9.83301 -68.5 -29.5s-26.5 -44.834 -26.5 -75.501c0 -30 8.5 -54.5 25.5 -73.5s40.167 -28.5 69.5 -28.5z" />
    <glyph glyph-name="colon" unicode=":" horiz-adv-x="305" 
d="M151 -11c-28.667 0 -52.834 9.83301 -72.501 29.5s-29.5 43.5 -29.5 71.5s9.83301 51.833 29.5 71.5s43.834 29.5 72.501 29.5c30 0 55 -9.83301 75 -29.5s30 -43.5 30 -71.5s-10 -51.833 -30 -71.5s-45 -29.5 -75 -29.5zM151 275c-28.667 0 -52.834 9.66699 -72.501 29
s-29.5 43.333 -29.5 72c0 28 9.83301 51.833 29.5 71.5s43.834 29.5 72.501 29.5c30 0 55 -9.83301 75 -29.5s30 -43.5 30 -71.5c0 -28.667 -10 -52.667 -30 -72s-45 -29 -75 -29z" />
    <glyph glyph-name="semicolon" unicode=";" horiz-adv-x="321" 
d="M116 -122l-106 41l83 263l166 -59zM174 275c-29.333 0 -53.666 9.66699 -72.999 29s-29 43.333 -29 72c0 28 9.66699 51.833 29 71.5s43.666 29.5 72.999 29.5c30 0 55 -9.83301 75 -29.5s30 -43.5 30 -71.5c0 -28.667 -10 -52.667 -30 -72s-45 -29 -75 -29z" />
    <glyph glyph-name="less" unicode="&#x3c;" horiz-adv-x="513" 
d="M463 59l-421 246v34l421 246v-162l-190 -100l190 -106v-158z" />
    <glyph glyph-name="equal" unicode="=" horiz-adv-x="557" 
d="M39 167v122h479v-122h-479zM39 363v123h479v-123h-479z" />
    <glyph glyph-name="greater" unicode="&#x3e;" horiz-adv-x="513" 
d="M49 60v163l191 99l-191 106v158l422 -246v-34z" />
    <glyph glyph-name="question" unicode="?" horiz-adv-x="556" 
d="M169 235l-0.000976562 19c0 18 2.5 34.833 7.5 50.5s13.5 31.167 25.5 46.5s21.667 27 29 35s19.333 20 36 36l33 33.5c7.33301 7.66699 14.5 17.667 21.5 30s10.5 23.833 10.5 34.5c0 40 -20.333 60 -61 60c-21.333 0 -39 -7.83301 -53 -23.5s-22.667 -37.167 -26 -64.5
h-174c2.66699 74 28.167 131.333 76.5 172s111.833 61 190.5 61c76.667 0 136 -16.5 178 -49.5s63 -79.167 63 -138.5c0 -52.667 -24.333 -102.667 -73 -150c-8 -8 -20.167 -19.5 -36.5 -34.5s-28.666 -26.667 -36.999 -35s-16.833 -18.833 -25.5 -31.5s-14 -24.667 -16 -36
v-15h-169zM253.999 -11c-30 0 -55.5 9.66699 -76.5 29s-31.5 42.666 -31.5 69.999s10.5 50.833 31.5 70.5s46.5 29.5 76.5 29.5c29.333 0 54.333 -9.83301 75 -29.5s31 -43.167 31 -70.5s-10.333 -50.666 -31 -69.999s-45.667 -29 -75 -29z" />
    <glyph glyph-name="at" unicode="@" horiz-adv-x="921" 
d="M460 -158c-131.333 0 -236.17 39 -314.503 117s-117.5 175.333 -117.5 292c0 64.667 12.5 124.834 37.5 180.501s58.167 102.167 99.5 139.5s89.333 66.666 144 87.999s111.334 32 170.001 32c120 0 218.833 -33.667 296.5 -101s116.5 -155 116.5 -263
c0 -92.667 -21 -161.667 -63 -207s-93 -68 -153 -68c-83.333 0 -132.333 27.333 -147 82c-27.333 -56 -72 -84 -134 -84c-49.333 0 -88.833 16.667 -118.5 50s-44.5 78.666 -44.5 135.999c0 69.333 19 125.833 57 169.5s85 65.5 141 65.5c54.667 0 91 -20 109 -60l7 52h147
l-34 -273c-5.33301 -44 9.33398 -66 44.001 -66c30.667 0 56.5 17 77.5 51s31.5 85.333 31.5 154c0 87.333 -30 157.833 -90 211.5s-140.333 80.5 -241 80.5c-105.333 0 -193 -34 -263 -102s-105 -157.667 -105 -269c0 -99.333 30.5 -180.666 91.5 -243.999
s147.5 -95 259.5 -95c54.667 0 104.334 8.33301 149.001 25s80.667 38 108 64h91c-33.333 -48.667 -81.333 -87.167 -144 -115.5s-132 -42.5 -208 -42.5zM442.996 168c22.667 0 41.667 10.833 57 32.5s23 49.5 23 83.5c0 22 -5.5 39.333 -16.5 52s-26.833 19 -47.5 19
c-22.667 0 -41.167 -10.5 -55.5 -31.5s-21.5 -48.167 -21.5 -81.5c0 -22 5.33301 -39.833 16 -53.5s25.667 -20.5 45 -20.5z" />
    <glyph glyph-name="A" unicode="A" horiz-adv-x="747" 
d="M13 0l229 715h265l227 -715h-217l-38 133h-237l-38 -133h-191zM361 549l-79 -275h157z" />
    <glyph glyph-name="B" unicode="B" horiz-adv-x="679" 
d="M69 0v714.999h319c81.333 0 141.833 -16.667 181.5 -50s59.5 -79 59.5 -137v-4c0 -81.333 -40.333 -132.666 -121 -153.999c95.333 -16 143 -71.667 143 -167v-4c0 -132.667 -86.667 -199 -260 -199h-322zM269 136.999h85c63.333 0 95 27.667 95 83v4
c0 54.667 -33.667 82 -101 82h-79v-169zM269 430.999h78c32 0 54.667 5.66699 68 17s20 30 20 56v4c0 24.667 -7 42.667 -21 54s-36.333 17 -67 17h-78v-148z" />
    <glyph glyph-name="C" unicode="C" horiz-adv-x="759" 
d="M405 -12c-122 0 -214.669 32.666 -278.002 97.999s-95 154.333 -95 267v8c0 108.667 34.333 196.667 103 264s156 101 262 101c96 0 173.333 -22.833 232 -68.5s92 -114.5 100 -206.5h-211c-8 75.333 -48 113 -120 113c-46.667 0 -83.334 -17.667 -110.001 -53
s-40 -85 -40 -149v-8c0 -64.667 13.333 -114.5 40 -149.5s64.334 -52.5 113.001 -52.5c36.667 0 66.834 9.83301 90.501 29.5s37.834 48.834 42.501 87.501h204c-6.66699 -90.667 -40 -160.167 -100 -208.5s-137.667 -72.5 -233 -72.5z" />
    <glyph glyph-name="D" unicode="D" horiz-adv-x="743" 
d="M275 158h47c60.667 0 105.167 16.167 133.5 48.5s42.5 81.833 42.5 148.5v8c0 68 -14.167 117.333 -42.5 148s-73.5 46 -135.5 46h-45v-399zM69 0l0.000976562 715h260c126 0 221.333 -30.167 286 -90.5s97 -146.5 97 -258.5v-8c0 -112.667 -32.833 -200.5 -98.5 -263.5
s-160.834 -94.5 -285.501 -94.5h-259z" />
    <glyph glyph-name="E" unicode="E" horiz-adv-x="612" 
d="M69 0v715h494v-158h-290v-123h231v-146h-231v-130h306v-158h-510z" />
    <glyph glyph-name="F" unicode="F" horiz-adv-x="579" 
d="M69 0v715h483v-159h-277v-152h221v-151h-221v-253h-206z" />
    <glyph glyph-name="G" unicode="G" horiz-adv-x="787" 
d="M406 -12c-118.667 0 -210.833 33.335 -276.5 100.002s-98.5 155 -98.5 265v8c0 108 35.333 195.833 106 263.5s160.334 101.5 269.001 101.5c91.333 0 168 -21.833 230 -65.5s96.333 -109.5 103 -197.5h-203c-10 68 -53 102 -129 102
c-50.667 0 -90.334 -18.333 -119.001 -55s-43 -87.334 -43 -152.001v-8c0 -62.667 13.167 -112.667 39.5 -150s68.833 -56 127.5 -56c46.667 0 81.5 10.167 104.5 30.5s35.5 46.166 37.5 77.499h-134v143h336v-88c0 -94.667 -30.333 -171.5 -91 -230.5
s-147 -88.5 -259 -88.5z" />
    <glyph glyph-name="H" unicode="H" horiz-adv-x="784" 
d="M69 0v715h206v-273h235v273h205v-715h-205v282h-235v-282h-206z" />
    <glyph glyph-name="I" unicode="I" horiz-adv-x="352" 
d="M73 0v715h207v-715h-207z" />
    <glyph glyph-name="J" unicode="J" horiz-adv-x="478" 
d="M163 -9c-53.333 0 -96.667 8 -130 24v153c28 -9.33301 57 -14 87 -14c62 0 93 33 93 99v462h206v-464c0 -86 -21.667 -150.833 -65 -194.5s-107 -65.5 -191 -65.5z" />
    <glyph glyph-name="K" unicode="K" horiz-adv-x="726" 
d="M69 0v715h206v-283l215 283h214l-262 -332l276 -383h-237l-206 299v-299h-206z" />
    <glyph glyph-name="L" unicode="L" horiz-adv-x="575" 
d="M69 0v715h206v-556h270v-159h-476z" />
    <glyph glyph-name="M" unicode="M" horiz-adv-x="942" 
d="M69 0v715h267l137 -381l137 381h262v-715h-204v445l-175 -445h-68l-173 445v-445h-183z" />
    <glyph glyph-name="N" unicode="N" horiz-adv-x="777" 
d="M69 0v715h231l229 -403v403h179v-715h-198l-261 449v-449h-180z" />
    <glyph glyph-name="O" unicode="O" horiz-adv-x="819" 
d="M410 149c50.667 0 90.668 18.333 120.001 55s44 87 44 151v8c0 63.333 -14.833 112.833 -44.5 148.5s-69.834 53.5 -120.501 53.5s-90.667 -17.667 -120 -53s-44 -85.333 -44 -150v-8c0 -64 15 -114.167 45 -150.5s70 -54.5 120 -54.5zM406.001 -12
c-114 0 -205.001 33.667 -273.001 101s-102 155.333 -102 264v8c0 107.333 35.833 194.833 107.5 262.5s161.834 101.5 270.501 101.5c110.667 0 201.5 -32.5 272.5 -97.5s106.5 -152.167 106.5 -261.5v-8c0 -110.667 -34.833 -200 -104.5 -268s-162.167 -102 -277.5 -102z
" />
    <glyph glyph-name="P" unicode="P" horiz-adv-x="652" 
d="M69 0v715.001h272c96.667 0 168.667 -20.5 216 -61.5s71 -100.167 71 -177.5v-4c0 -74.667 -24.167 -131.834 -72.5 -171.501s-116.833 -59.5 -205.5 -59.5h-77v-241h-204zM273 381.001h59c67.333 0 101 30 101 90v4c0 57.333 -33.333 86 -100 86h-60v-180z" />
    <glyph glyph-name="Q" unicode="Q" horiz-adv-x="819" 
d="M613 -120l-116.001 117c-28.667 -6 -59 -9 -91 -9c-114 0 -205 33.667 -273 101s-102 155.333 -102 264v8c0 107.333 35.833 194.833 107.5 262.5s161.834 101.5 270.501 101.5c110.667 0 201.5 -32.5 272.5 -97.5s106.5 -152.167 106.5 -261.5v-8
c0 -126 -44.333 -223.333 -133 -292l72 -72zM244.999 354c0 -106.667 34.334 -173.332 103.001 -199.999l115 106l64 -65c31.333 37.333 47 90.666 47 159.999v8c0 63.333 -14.833 112.833 -44.5 148.5s-69.834 53.5 -120.501 53.5s-90.667 -17.667 -120 -53
s-44 -85.333 -44 -150v-8z" />
    <glyph glyph-name="R" unicode="R" horiz-adv-x="697" 
d="M69 0v715h280c94 0 166 -19.167 216 -57.5s75 -94.833 75 -169.5v-4c0 -92 -43 -154.667 -129 -188l171 -296h-216l-145 256h-48v-256h-204zM273 389h66c68.667 0 103 29 103 87v4c0 54 -34 81 -102 81h-67v-172z" />
    <glyph glyph-name="S" unicode="S" horiz-adv-x="647" 
d="M331 -12c-99.333 0 -174.668 20.332 -226.001 60.999s-78.666 100 -81.999 178h195c2.66699 -29.333 12.334 -52.166 29.001 -68.499s44.667 -24.5 84 -24.5c28.667 0 51.167 6.5 67.5 19.5s24.5 30.167 24.5 51.5s-7.66699 36.5 -23 45.5s-45.333 16.833 -90 23.5
c-100.667 12 -170.834 34.833 -210.501 68.5s-59.5 86.834 -59.5 159.501c0 65.333 25.167 118.833 75.5 160.5s117.5 62.5 201.5 62.5c175.333 0 269.333 -74.333 282 -223h-190c-7.33301 51.333 -38 77 -92 77c-26.667 0 -47.167 -5.5 -61.5 -16.5
s-21.5 -25.833 -21.5 -44.5c0 -20.667 7.66699 -36 23 -46s44.666 -18 87.999 -24c96 -10.667 165.667 -31.834 209 -63.501s65 -84.5 65 -158.5c0 -68 -25.667 -124.667 -77 -170s-121.666 -68 -210.999 -68z" />
    <glyph glyph-name="T" unicode="T" horiz-adv-x="618" 
d="M206 0v557h-185v158h576v-158h-185v-557h-206z" />
    <glyph glyph-name="U" unicode="U" horiz-adv-x="764" 
d="M381 -12c-102 0 -180.333 25.5 -235 76.5s-82 126.167 -82 225.5v425h205v-416c0 -52.667 8.16699 -90.834 24.5 -114.501s45.5 -35.5 87.5 -35.5c41.333 0 70.333 11.833 87 35.5s25 62.834 25 117.501v413h207v-422c0 -101.333 -27.833 -177.5 -83.5 -228.5
s-134.167 -76.5 -235.5 -76.5z" />
    <glyph glyph-name="V" unicode="V" horiz-adv-x="728" 
d="M249 0l-237 715h221l145 -502l146 502h192l-234 -715h-233z" />
    <glyph glyph-name="W" unicode="W" horiz-adv-x="996" 
d="M180 0l-166 715h207l92 -446l96 446h182l104 -450l97 450h190l-167 -715h-214l-110 454l-111 -454h-200z" />
    <glyph glyph-name="X" unicode="X" horiz-adv-x="755" 
d="M22 0l221 368l-204 347h233l112 -213l110 213h210l-192 -340l221 -375h-234l-133 246l-133 -246h-211z" />
    <glyph glyph-name="Y" unicode="Y" horiz-adv-x="677" 
d="M241 0v306l-233 409h223l121 -241l121 241h196l-222 -409v-306h-206z" />
    <glyph glyph-name="Z" unicode="Z" horiz-adv-x="627" 
d="M13 0v23l304 535h-265v157h556v-22l-300 -535h285v-158h-580z" />
    <glyph glyph-name="bracketleft" unicode="[" horiz-adv-x="409" 
d="M66 -148v924h305v-131h-125v-662h125v-131h-305z" />
    <glyph glyph-name="backslash" unicode="\" horiz-adv-x="434" 
d="M316 -148l-318 924h143l317 -924h-142z" />
    <glyph glyph-name="bracketright" unicode="]" horiz-adv-x="409" 
d="M39 -148v131h124v662h-124v131h304v-924h-304z" />
    <glyph glyph-name="asciicircum" unicode="^" horiz-adv-x="531" 
d="M23 393l164 322h157l164 -322h-153l-91 176l-91 -176h-150z" />
    <glyph glyph-name="underscore" unicode="_" horiz-adv-x="434" 
d="M-1 -161v86h436v-86h-436z" />
    <glyph glyph-name="grave" unicode="`" horiz-adv-x="400" 
d="M143 583l-105 166h180l53 -166h-128z" />
    <glyph glyph-name="a" unicode="a" horiz-adv-x="578" 
d="M200 -12c-51.333 0 -93.666 12.999 -126.999 38.999s-50 65.333 -50 118c0 114 92.667 171 278 171h50v12c0 27.333 -4.83301 48 -14.5 62s-27.834 21 -54.501 21c-42 0 -65.667 -20.667 -71 -62h-168c4 61.333 28.333 108 73 140s103.667 48 177 48
c74.667 0 132.667 -16.167 174 -48.5s62 -82.166 62 -149.499v-339h-174v61c-32 -48.667 -83.667 -73 -155 -73zM262 108.999c26 0 47.333 6.83203 64 20.499s25 31.5 25 53.5v32h-47c-36.667 0 -63.167 -4.16699 -79.5 -12.5s-24.5 -23.166 -24.5 -44.499
c0 -32.667 20.667 -49 62 -49z" />
    <glyph glyph-name="b" unicode="b" horiz-adv-x="643" 
d="M394 -12c-38 0 -71.167 8.33301 -99.5 25s-49.166 39.334 -62.499 68.001v-81h-179v753h179v-308c36.667 61.333 91 92 163 92c64 0 116.833 -23.667 158.5 -71s62.5 -114 62.5 -200v-8c0 -86.667 -20.833 -153.334 -62.5 -200.001s-94.834 -70 -159.501 -70zM331 125
c33.333 0 58.833 11.332 76.5 33.999s26.5 55.667 26.5 99v8c0 44.667 -9 78.5 -27 101.5s-43.333 34.5 -76 34.5s-58.167 -11.667 -76.5 -35s-27.5 -56.666 -27.5 -99.999v-8c0 -44 9 -77.333 27 -100s43.667 -34 77 -34z" />
    <glyph glyph-name="c" unicode="c" horiz-adv-x="583" 
d="M300 -12c-81.333 0 -147.498 23.168 -198.498 69.501s-76.5 112.166 -76.5 197.499v8c0 84.667 26.5 151.5 79.5 200.5s119.5 73.5 199.5 73.5c45.333 0 85.833 -6.5 121.5 -19.5s66.167 -36.167 91.5 -69.5s39.666 -75.333 42.999 -126h-168c-8 50.667 -36 76 -84 76
c-32 0 -56.667 -11.333 -74 -34s-26 -55.667 -26 -99v-8c0 -92 34.333 -138 103 -138c25.333 0 46.166 7.5 62.499 22.5s25.833 36.5 28.5 64.5h161c-2.66699 -67.333 -26.5 -120.5 -71.5 -159.5s-108.833 -58.5 -191.5 -58.5z" />
    <glyph glyph-name="d" unicode="d" horiz-adv-x="642" 
d="M247 -12c-64 0 -116.668 23 -158.001 69s-62 112.333 -62 199v8c0 86 20.833 153 62.5 201s94.834 72 159.501 72c74 0 127.667 -29.333 161 -88v304h179v-753h-179v85c-14 -28.667 -35.167 -52 -63.5 -70s-61.5 -27 -99.5 -27zM309.999 125
c33.333 0 59.167 11.333 77.5 34s27.5 56 27.5 100v8c0 44 -8.83301 77.5 -26.5 100.5s-43.167 34.5 -76.5 34.5c-68.667 0 -103 -45.333 -103 -136v-8c0 -43.333 9 -76.333 27 -99s42.667 -34 74 -34z" />
    <glyph glyph-name="e" unicode="e" horiz-adv-x="598" 
d="M309 -12c-84 0 -152.333 23.667 -205 71s-79 112.666 -79 195.999v8c0 82 27 148.167 81 198.5s121.333 75.5 202 75.5c76.667 0 140.167 -22.667 190.5 -68s75.5 -112.666 75.5 -201.999v-47h-368c2.66699 -34.667 13.5 -61.5 32.5 -80.5s44.5 -28.5 76.5 -28.5
c52.667 0 83 20.667 91 62h168c-8 -59.333 -34.5 -105 -79.5 -137s-106.833 -48 -185.5 -48zM208 321h191.999c-3.33301 65.333 -34 98 -92 98c-27.333 0 -49.666 -8.5 -66.999 -25.5s-28.333 -41.167 -33 -72.5z" />
    <glyph glyph-name="f" unicode="f" horiz-adv-x="386" 
d="M80 0v401.001h-66v122h66v46c0 63.333 18.167 111.166 54.5 143.499s86.5 48.5 150.5 48.5c25.333 0 52.666 -3.66699 81.999 -11v-131c-15.333 4.66699 -31.666 7 -48.999 7c-40 0 -60 -19 -60 -57v-46h106v-122h-106v-401h-178z" />
    <glyph glyph-name="g" unicode="g" horiz-adv-x="641" 
d="M298 -194c-167.333 0 -258.667 64.667 -274 194h178c9.33301 -45.333 41.333 -68 96 -68c74 0 111 36.667 111 110v80c-14.667 -27.333 -36.167 -50.166 -64.5 -68.499s-60.833 -27.5 -97.5 -27.5c-63.333 0 -116.166 22.333 -158.499 67s-63.5 106 -63.5 184v8
c0 75.333 21.167 136.166 63.5 182.499s95.166 69.5 158.499 69.5c74.667 0 128.667 -29.333 162 -88v74h179v-479c0 -78 -24.833 -137.167 -74.5 -177.5s-121.5 -60.5 -215.5 -60.5zM309.999 158c32 0 57.333 10.832 76 32.499s28 50.834 28 87.501v7
c0 36.667 -9 65.5 -27 86.5s-43.333 31.5 -76 31.5s-58 -10.667 -76 -32s-27 -50.333 -27 -87v-8c0 -36 9 -64.667 27 -86s43 -32 75 -32z" />
    <glyph glyph-name="h" unicode="h" horiz-adv-x="624" 
d="M53 0l-0.000976562 753.001h179v-314c15.333 29.333 37.5 53 66.5 71s64.167 27 105.5 27c52.667 0 94.334 -16.667 125.001 -50s46 -82.333 46 -147v-340h-179v304c0 58.667 -25 88 -75 88c-27.333 0 -49 -8.33301 -65 -25s-24 -41.334 -24 -74.001v-293h-179z" />
    <glyph glyph-name="i" unicode="i" horiz-adv-x="295" 
d="M58 0v523h179v-523h-179zM147 573c-28 0 -51.333 8.66699 -70 26s-28 39.333 -28 66s9.33301 48.834 28 66.501s42 26.5 70 26.5s51.5 -8.83301 70.5 -26.5s28.5 -39.834 28.5 -66.501s-9.5 -48.667 -28.5 -66s-42.5 -26 -70.5 -26z" />
    <glyph glyph-name="j" unicode="j" horiz-adv-x="295" 
d="M-6 -184v130c22 1.33301 38.167 7 48.5 17s15.5 25 15.5 45v515h178v-519c0 -61.333 -18 -108 -54 -140s-98.667 -48 -188 -48zM147 573c-28 0 -51.333 8.66699 -70 26s-28 39.333 -28 66s9.33301 48.834 28 66.501s42 26.5 70 26.5s51.5 -8.83301 70.5 -26.5
s28.5 -39.834 28.5 -66.501s-9.5 -48.667 -28.5 -66s-42.5 -26 -70.5 -26z" />
    <glyph glyph-name="k" unicode="k" horiz-adv-x="577" 
d="M53 0v753h179v-437l141 207h186l-171 -235l185 -288h-200l-141 229v-229h-179z" />
    <glyph glyph-name="l" unicode="l" horiz-adv-x="294" 
d="M58 0v753h178v-753h-178z" />
    <glyph glyph-name="m" unicode="m" horiz-adv-x="931" 
d="M53 0l0.000976562 522.999h179v-80c15.333 27.333 37 49.833 65 67.5s61 26.5 99 26.5c69.333 0 116.666 -29 141.999 -87c42.667 58 100.334 87 173.001 87c51.333 0 92.666 -16.667 123.999 -50s47 -81.666 47 -144.999v-342h-179v312c0 26 -6 45.667 -18 59
s-28.333 20 -49 20c-24.667 0 -44.167 -7.66699 -58.5 -23s-21.5 -37 -21.5 -65v-303h-177v312c0 26 -6 45.667 -18 59s-28.333 20 -49 20c-24.667 0 -44.167 -7.66699 -58.5 -23s-21.5 -37 -21.5 -65v-303h-179z" />
    <glyph glyph-name="n" unicode="n" horiz-adv-x="624" 
d="M53 0l-0.000976562 523.001h179v-84c15.333 29.333 37.5 53 66.5 71s64.167 27 105.5 27c52.667 0 94.334 -16.667 125.001 -50s46 -82.333 46 -147v-340h-179v304c0 58.667 -25 88 -75 88c-27.333 0 -49 -8.33301 -65 -25s-24 -41.334 -24 -74.001v-293h-179z" />
    <glyph glyph-name="o" unicode="o" horiz-adv-x="622" 
d="M312 121c33.333 0 58.833 11.833 76.5 35.5s26.5 57.5 26.5 101.5v8c0 91.333 -34.333 137 -103 137c-33.333 0 -59 -11.5 -77 -34.5s-27 -56.5 -27 -100.5v-8c0 -92.667 34.667 -139 104 -139zM311 -12c-82.667 0 -151 24 -205 72s-81 113 -81 195v8
c0 82.667 27.167 149 81.5 199s122.833 75 205.5 75c82 0 150 -24.5 204 -73.5s81 -114.167 81 -195.5v-8c0 -83.333 -27 -149.5 -81 -198.5s-122.333 -73.5 -205 -73.5z" />
    <glyph glyph-name="p" unicode="p" horiz-adv-x="643" 
d="M53 -175v698.001h179v-78c36.667 61.333 91 92 163 92c64 0 116.833 -23.667 158.5 -71s62.5 -114 62.5 -200v-8c0 -86.667 -20.833 -153.334 -62.5 -200.001s-94.834 -70 -159.501 -70c-38 0 -71.167 8.16699 -99.5 24.5s-49.166 37.833 -62.499 64.5v-252h-179z
M331 125.001c33.333 0 58.833 11.332 76.5 33.999s26.5 55.667 26.5 99v8c0 44.667 -9 78.5 -27 101.5s-43.333 34.5 -76 34.5s-58.167 -11.667 -76.5 -35s-27.5 -56.666 -27.5 -99.999v-8c0 -44 9 -77.333 27 -100s43.667 -34 77 -34z" />
    <glyph glyph-name="q" unicode="q" horiz-adv-x="642" 
d="M410 -175l-0.000976562 256.001c-14 -26.667 -35.333 -48.834 -64 -66.501s-61.667 -26.5 -99 -26.5c-64 0 -116.667 23 -158 69s-62 112.333 -62 199v8c0 86 20.833 153 62.5 201s94.834 72 159.501 72c74 0 127.667 -29.333 161 -88v74h179v-698h-179zM309.999 125.001
c33.333 0 59.167 11.333 77.5 34s27.5 56 27.5 100v8c0 44 -8.83301 77.5 -26.5 100.5s-43.167 34.5 -76.5 34.5c-68.667 0 -103 -45.333 -103 -136v-8c0 -43.333 9 -76.333 27 -99s42.667 -34 74 -34z" />
    <glyph glyph-name="r" unicode="r" horiz-adv-x="428" 
d="M53 0v523h179v-104c32 74.667 88.333 111.667 169 111v-167c-112.667 3.33301 -169 -35 -169 -115v-248h-179z" />
    <glyph glyph-name="s" unicode="s" horiz-adv-x="515" 
d="M258 -12c-74.667 0 -132.833 15.166 -174.5 45.499s-63.5 74.5 -65.5 132.5h165c3.33301 -20 10.333 -34.833 21 -44.5s28.334 -14.5 53.001 -14.5c42.667 0 64 14.333 64 43c0 12.667 -7.16699 22.334 -21.5 29.001s-39.5 12.667 -75.5 18
c-71.333 9.33301 -122.333 26.333 -153 51s-46 63.667 -46 117c0 55.333 21.333 97.833 64 127.5s96 44.5 160 44.5c143.333 0 220.333 -56.333 231 -169h-162c-6.66699 34.667 -29 52 -67 52c-18.667 0 -33.167 -3.66699 -43.5 -11s-15.5 -17.333 -15.5 -30
c0 -12 6.5 -21.167 19.5 -27.5s35.833 -11.5 68.5 -15.5c76 -9.33301 130.833 -26.166 164.5 -50.499s50.5 -63.5 50.5 -117.5c0 -60.667 -20.833 -105.834 -62.5 -135.501s-99.834 -44.5 -174.501 -44.5z" />
    <glyph glyph-name="t" unicode="t" horiz-adv-x="389" 
d="M261 -12c-122.667 0 -184 60 -184 180v233h-63v122h63v109h179v-109h103v-122h-103v-216c0 -36.667 17.667 -55 53 -55c18 0 35 3 51 9v-136c-38.667 -10 -71.667 -15 -99 -15z" />
    <glyph glyph-name="u" unicode="u" horiz-adv-x="623" 
d="M225 -12c-52.667 0 -95.167 16.499 -127.5 49.499s-48.5 81.167 -48.5 144.5v341h179v-312c0 -58.667 24.667 -88 74 -88c28 0 49.833 8.33301 65.5 25s23.5 41.334 23.5 74.001v301h179v-523h-179v81c-32 -62 -87.333 -93 -166 -93z" />
    <glyph glyph-name="v" unicode="v" horiz-adv-x="593" 
d="M200 0l-192 523h191l109 -337l107 337h171l-191 -523h-195z" />
    <glyph glyph-name="w" unicode="w" horiz-adv-x="845" 
d="M167 0l-158 523h187l76 -313l88 313h144l78 -313l85 313h170l-166 -523h-171l-78 292l-81 -292h-174z" />
    <glyph glyph-name="x" unicode="x" 
d="M11 0l174 266l-163 257h206l81 -138l79 138h184l-165 -243l181 -280h-206l-93 156l-95 -156h-183z" />
    <glyph glyph-name="y" unicode="y" horiz-adv-x="589" 
d="M130 -175l87 228l-209 470h194l108 -279l100 279h171l-280 -698h-171z" />
    <glyph glyph-name="z" unicode="z" horiz-adv-x="508" 
d="M10 0v18l229 370h-205v135h461v-19l-235 -369h223v-135h-473z" />
    <glyph glyph-name="braceleft" unicode="{" horiz-adv-x="418" 
d="M380 -148c-102 0 -175.332 18.665 -219.999 55.998s-60.334 95.666 -47.001 174.999l15 85c4 24.667 -2 45 -18 61s-42.333 24 -79 24v125c36.667 0 63 7.83301 79 23.5s22 35.834 18 60.501l-15 84c-13.333 82 2 141 46 177s117.667 54 221 54v-130
c-38.667 -2 -64.5 -9.66699 -77.5 -23s-17.167 -37.666 -12.5 -72.999l13 -101c4.66699 -34 -2.16602 -62.5 -20.499 -85.5s-45.833 -38.833 -82.5 -47.5c36.667 -8.66699 64.167 -24.667 82.5 -48s25.166 -52 20.499 -86l-13 -101c-4.66699 -36 -0.5 -61.167 12.5 -75.5
s38.833 -22.166 77.5 -23.499v-131z" />
    <glyph glyph-name="bar" unicode="|" horiz-adv-x="268" 
d="M71 -148v924h125v-924h-125z" />
    <glyph glyph-name="braceright" unicode="}" horiz-adv-x="418" 
d="M38 -148l0.000976562 131.002c38.667 1.33301 64.5 9.16602 77.5 23.499s17.167 39.5 12.5 75.5l-13 101c-4.66699 34 2.16602 62.667 20.499 86s45.833 39.333 82.5 48c-36.667 8.66699 -64.167 24.5 -82.5 47.5s-25.166 51.5 -20.499 85.5l13 101
c4.66699 35.333 0.5 59.666 -12.5 72.999s-38.833 21 -77.5 23v130c103.333 0 177 -18 221 -54s59.333 -95 46 -177l-15 -84c-4 -24.667 2 -44.834 18 -60.501s42.333 -23.5 79 -23.5v-125c-36.667 0 -63 -8 -79 -24s-22 -36.333 -18 -61l15 -85
c13.333 -79.333 -2.33398 -137.666 -47.001 -174.999s-118 -56 -220 -56z" />
    <glyph glyph-name="asciitilde" unicode="~" horiz-adv-x="518" 
d="M28 214c4 67.333 19.666 117.166 46.999 149.499s61 48.5 101 48.5c27.333 0 57.5 -7.33301 90.5 -22s53.833 -22 62.5 -22c26 0 41 15.333 45 46h116c-2.66699 -63.333 -18 -112.166 -46 -146.499s-61.333 -51.5 -100 -51.5c-28 0 -58.5 7.33301 -91.5 22
s-53.833 22 -62.5 22c-25.333 0 -40.666 -15.333 -45.999 -46h-116z" />
    <glyph glyph-name="uni00A0" unicode="&#xa0;" horiz-adv-x="258" 
 />
    <glyph glyph-name="exclamdown" unicode="&#xa1;" horiz-adv-x="334" 
d="M66 -117l27 480h148l27 -480h-202zM167 410c-29.333 0 -54.5 9.83301 -75.5 29.5s-31.5 43.167 -31.5 70.5s10.5 50.666 31.5 69.999s46.167 29 75.5 29s54.333 -9.66699 75 -29s31 -42.666 31 -69.999s-10.333 -50.833 -31 -70.5s-45.667 -29.5 -75 -29.5z" />
    <glyph glyph-name="cent" unicode="&#xa2;" horiz-adv-x="595" 
d="M275 -135v124.999c-74.667 6.66699 -135 32.834 -181 78.501s-69 107.834 -69 186.501v8c0 76.667 23.333 139 70 187s106.667 76 180 84v95h78v-94c62 -6 113.167 -26.833 153.5 -62.5s62.833 -85.834 67.5 -150.501h-164c-5.33301 40 -24.333 66 -57 78v-284
c40.667 12 63 42 67 90h157c-3.33301 -61.333 -24.5 -111 -63.5 -149s-92.5 -60.333 -160.5 -67v-125h-78zM202 256.999c0 -74.667 24.333 -121 73 -139v281c-48.667 -17.333 -73 -62 -73 -134v-8z" />
    <glyph glyph-name="sterling" unicode="&#xa3;" horiz-adv-x="657" 
d="M34 287l-0.000976562 119.998h51c-8 30.667 -12 60.334 -12 89.001c0 71.333 25.833 127.333 77.5 168s117.5 61 197.5 61c89.333 0 156.5 -21.167 201.5 -63.5s69.167 -101.5 72.5 -177.5h-187c-4 30 -12.333 52 -25 66s-31 21 -55 21s-43.167 -7.66699 -57.5 -23
s-21.5 -36.333 -21.5 -63c0 -22 2.33301 -48 7 -78h177v-120h-157c2.66699 -24 4 -42.667 4 -56c0 -19.333 -3.33301 -39 -10 -59c51.333 -14.667 81.666 -22 90.999 -22c39.333 0 60.333 19.667 63 59h184c-2.66699 -64.667 -22 -117.167 -58 -157.5
s-85.667 -60.5 -149 -60.5c-38 0 -79.667 8.66699 -125 26s-73.666 26 -84.999 26c-29.333 0 -45.666 -14.333 -48.999 -43h-151c2.66699 40.667 13 76.834 31 108.501s43 54.167 75 67.5c5.33301 16 8 34.333 8 55c0 17.333 -2.66699 36 -8 56h-90z" />
    <glyph glyph-name="yen" unicode="&#xa5;" horiz-adv-x="646" 
d="M64 294v71h138l-191 350h222l104 -233l103 233h195l-182 -350h140v-71h-162v-51h162v-72h-162v-171h-205v171h-162v72h162v51h-162z" />
    <glyph glyph-name="brokenbar" unicode="&#xa6;" horiz-adv-x="270" 
d="M71 -148v449h125v-449h-125zM71 372v404h125v-404h-125z" />
    <glyph glyph-name="section" unicode="&#xa7;" horiz-adv-x="606" 
d="M292 -137c-68.667 0 -122.169 16.166 -160.502 48.499s-58.833 77.166 -61.5 134.499h163c3.33301 -41.333 24.333 -62 63 -62s58 15.333 58 46c0 15.333 -7.33301 27 -22 35s-43 17 -85 27c-75.333 18 -131.666 41.333 -168.999 70s-56 70.667 -56 126
c0 64.667 36 110.334 108 137.001c-30 30 -45 68.667 -45 116c0 56 21.333 100.667 64 134s97.667 50 165 50c68 0 121 -16.167 159 -48.5s58.333 -77.166 61 -134.499h-162c-4 40 -24.667 60 -62 60c-38 0 -57 -15.333 -57 -46c0 -16 6.66699 -28 20 -36s41.333 -17 84 -27
c76.667 -18 133.834 -40.833 171.501 -68.5s56.5 -69.834 56.5 -126.501c0 -63.333 -36 -109.333 -108 -138c29.333 -29.333 44 -67.666 44 -114.999c0 -54.667 -21.167 -98.667 -63.5 -132s-97.5 -50 -165.5 -50zM367.998 223.999c29.333 6.66699 44 22.333 44 47
c0 16 -6.5 27.667 -19.5 35s-39.5 17.333 -79.5 30l-74 24c-29.333 -5.33301 -44 -21 -44 -47c0 -14.667 7.16699 -26 21.5 -34s40.5 -18 78.5 -30z" />
    <glyph glyph-name="dieresis" unicode="&#xa8;" horiz-adv-x="400" 
d="M93 580c-23.333 0 -43.333 8.16699 -60 24.5s-25 35.833 -25 58.5c0 23.333 8.33301 43.166 25 59.499s36.667 24.5 60 24.5c24 0 44.333 -8.16699 61 -24.5s25 -36.166 25 -59.499s-8.33301 -43 -25 -59s-37 -24 -61 -24zM306 580c-24 0 -44.167 8 -60.5 24
s-24.5 35.667 -24.5 59s8.16699 43.166 24.5 59.499s36.5 24.5 60.5 24.5s44.333 -8.16699 61 -24.5s25 -36.166 25 -59.499s-8.33301 -43 -25 -59s-37 -24 -61 -24z" />
    <glyph glyph-name="copyright" unicode="&#xa9;" horiz-adv-x="843" 
d="M428 151c-70 0 -122.833 18 -158.5 54s-53.5 85.667 -53.5 149v8c0 60.667 19.5 109.5 58.5 146.5s88.833 55.5 149.5 55.5c55.333 0 99.5 -13 132.5 -39s51.5 -65.333 55.5 -118h-128c-4 39.333 -24 59 -60 59c-50.667 0 -76 -34.667 -76 -104v-7c0 -70 26 -105 78 -105
c41.333 0 64 20.333 68 61h123c-2.66699 -51.333 -21.167 -90.833 -55.5 -118.5s-78.833 -41.5 -133.5 -41.5zM420 31c90.667 0 167.168 30.667 229.501 92s93.5 140 93.5 236c0 95.333 -30.833 173.333 -92.5 234s-137.834 91 -228.501 91c-92 0 -168.667 -30.5 -230 -91.5
s-92 -139.5 -92 -235.5s31 -174.333 93 -235s137.667 -91 227 -91zM420.001 -20c-106.667 0 -197.168 36.168 -271.501 108.501s-111.5 161.833 -111.5 268.5c0 105.333 37.333 194.666 112 267.999s165.667 110 273 110c108.667 0 199.834 -36.333 273.501 -109
s110.5 -161.667 110.5 -267c0 -107.333 -37.167 -197.333 -111.5 -270s-165.833 -109 -274.5 -109z" />
    <glyph glyph-name="ordfeminine" unicode="&#xaa;" horiz-adv-x="483" 
d="M168 287c-40 0 -73.498 10.5 -100.498 31.5s-40.5 52.5 -40.5 94.5c0 47.333 18.167 81.166 54.5 101.499s91.5 30.5 165.5 30.5h40v15c0 18 -3.5 31.5 -10.5 40.5s-19.5 13.5 -37.5 13.5c-28.667 0 -45 -14.667 -49 -44h-148
c3.33301 48.667 23.166 86.334 59.499 113.001s84.833 40 145.5 40c130.667 0 196 -52.667 196 -158v-267h-153v47c-24.667 -38.667 -65.334 -58 -122.001 -58zM226.002 393c18 0 32.667 4.5 44 13.5s17 21.167 17 36.5v23h-36c-46 0 -69 -13 -69 -39
c0 -22.667 14.667 -34 44 -34z" />
    <glyph glyph-name="guillemotleft" unicode="&#xab;" horiz-adv-x="480" 
d="M155 70l-124 191l124 191h115l-119 -191l119 -191h-115zM335 70l-124 191l124 191h115l-119 -191l119 -191h-115z" />
    <glyph glyph-name="registered" unicode="&#xae;" horiz-adv-x="517" 
d="M173 396v218.999h90c60.667 0 91 -23.667 91 -71v-1c0 -27.333 -12.333 -46.666 -37 -57.999l50 -89h-72l-40 75h-12v-75h-70zM243 515.999h15c18.667 0 28 7.66699 28 23v1c0 14.667 -9.33301 22 -28 22h-15v-46zM258 318.999c52.667 0 96.833 17.333 132.5 52
s53.5 78.667 53.5 132c0 54 -17.5 98.167 -52.5 132.5s-79.5 51.5 -133.5 51.5s-98.333 -17.333 -133 -52s-52 -79 -52 -133s17.667 -98 53 -132s79.333 -51 132 -51zM257.999 280.999c-64 0 -118.167 21.168 -162.5 63.501s-66.5 94.833 -66.5 157.5
c0 62 22.167 114.667 66.5 158s98.5 65 162.5 65c64.667 0 119.167 -21.5 163.5 -64.5s66.5 -95.5 66.5 -157.5c0 -62.667 -22.333 -115.334 -67 -158.001s-99 -64 -163 -64z" />
    <glyph glyph-name="macron" unicode="&#xaf;" horiz-adv-x="400" 
d="M46 612v100h307v-100h-307z" />
    <glyph glyph-name="degree" unicode="&#xb0;" horiz-adv-x="453" 
d="M227 451c26 0 47.667 9.66699 65 29s26 43 26 71c0 29.333 -8.5 53.833 -25.5 73.5s-38.833 29.5 -65.5 29.5s-48.834 -9.83301 -66.501 -29.5s-26.5 -44.167 -26.5 -73.5c0 -28 8.83301 -51.667 26.5 -71s39.834 -29 66.501 -29zM227 381
c-48.667 0 -90.334 16.833 -125.001 50.5s-52 73.5 -52 119.5c0 47.333 17.333 88 52 122s76.334 51 125.001 51s90.167 -17 124.5 -51s51.5 -74.667 51.5 -122c0 -46 -17.333 -85.833 -52 -119.5s-76 -50.5 -124 -50.5z" />
    <glyph glyph-name="plusminus" unicode="&#xb1;" horiz-adv-x="570" 
d="M213 176v165h-176v131h176v164h144v-164h176v-131h-176v-165h-144zM37 0v118h498v-118h-498z" />
    <glyph glyph-name="twosuperior" unicode="&#xb2;" horiz-adv-x="353" 
d="M5 339l0.000976562 16.999l128 133c24 24.667 41.333 44.334 52 59.001s16 29 16 43c0 21.333 -10.333 32 -31 32c-22.667 0 -36 -17.333 -40 -52h-120c1.33301 48 16.666 84.833 45.999 110.5s69.333 38.5 120 38.5s89.167 -11 115.5 -33s39.5 -51 39.5 -87
c0 -41.333 -25.667 -85.333 -77 -132l-35 -34h113v-95h-327z" />
    <glyph glyph-name="threesuperior" unicode="&#xb3;" horiz-adv-x="374" 
d="M186 332c-107.333 0 -163.333 44.668 -168 134.001h116c3.33301 -28 18.333 -42 45 -42c26 0 39 11.333 39 34s-15 34 -45 34h-30v74h30c30 0 45 11.333 45 34c0 19.333 -11.333 29 -34 29c-24 0 -38 -12.667 -42 -38h-116c3.33301 39.333 18.5 70.666 45.5 93.999
s65.5 35 115.5 35c49.333 0 87.666 -9.16699 114.999 -27.5s41 -43.833 41 -76.5c0 -41.333 -22.667 -68.333 -68 -81c22.667 -3.33301 41 -12.333 55 -27s21 -33 21 -55c0 -37.333 -14.167 -66.833 -42.5 -88.5s-69.166 -32.5 -122.499 -32.5z" />
    <glyph glyph-name="acute" unicode="&#xb4;" horiz-adv-x="400" 
d="M129 583l53 166h180l-105 -166h-128z" />
    <glyph glyph-name="paragraph" unicode="&#xb6;" horiz-adv-x="551" 
d="M256 -100v429h-8c-68.667 0 -122.5 16 -161.5 48s-58.5 79 -58.5 141c0 64.667 20 113.667 60 147s93.333 50 160 50h233v-815h-76v751h-74v-751h-75z" />
    <glyph glyph-name="periodcentered" unicode="&#xb7;" horiz-adv-x="299" 
d="M148 225c-29.333 0 -53.666 9.83301 -72.999 29.5s-29 43.5 -29 71.5s9.66699 51.833 29 71.5s43.666 29.5 72.999 29.5c30 0 55 -9.83301 75 -29.5s30 -43.5 30 -71.5s-10 -51.833 -30 -71.5s-45 -29.5 -75 -29.5z" />
    <glyph glyph-name="cedilla" unicode="&#xb8;" horiz-adv-x="400" 
d="M204 -226c-36 0 -64.998 7.99902 -86.998 23.999s-35.333 39 -40 69h84c4.66699 -18.667 16.667 -28 36 -28c10 0 17.833 2.83301 23.5 8.5s8.5 12.834 8.5 21.501c0 9.33301 -3 16.833 -9 22.5s-14 8.5 -24 8.5c-12.667 0 -23.334 -3.66699 -32.001 -11l-39 38l48 73h72
l-31 -45c31.333 3.33301 57.666 -2.5 78.999 -17.5s32 -37.833 32 -68.5c0 -30 -11 -53.333 -33 -70s-51.333 -25 -88 -25z" />
    <glyph glyph-name="onesuperior" unicode="&#xb9;" horiz-adv-x="286" 
d="M102 339v248l-82 -46v107l102 67h114v-376h-134z" />
    <glyph glyph-name="ordmasculine" unicode="&#xba;" horiz-adv-x="522" 
d="M262 404c46.667 0 70 33 70 99v6c0 65.333 -23.333 98 -70 98c-48 0 -72 -32 -72 -96v-6c0 -67.333 24 -101 72 -101zM261 287c-67.333 0 -122.666 18.832 -165.999 56.499s-65 89.5 -65 155.5v6c0 66.667 21.833 119.667 65.5 159s99.167 59 166.5 59
c66.667 0 121.667 -19.167 165 -57.5s65 -90.166 65 -155.499v-6c0 -66.667 -21.833 -119.5 -65.5 -158.5s-98.834 -58.5 -165.501 -58.5z" />
    <glyph glyph-name="guillemotright" unicode="&#xbb;" horiz-adv-x="480" 
d="M30 70l120 191l-120 191h115l125 -191l-125 -191h-115zM210 70l120 191l-120 191h115l125 -191l-125 -191h-115z" />
    <glyph glyph-name="onequarter" unicode="&#xbc;" horiz-adv-x="795" 
d="M105 339v248l-82 -46v107l102 67h114v-376h-134zM66 0l560 715h94l-560 -715h-94zM596 0v70h-187v49l156 257h159v-219h48v-87h-48v-70h-128zM523 157h77v131z" />
    <glyph glyph-name="onehalf" unicode="&#xbd;" horiz-adv-x="807" 
d="M53 0l560 715h94l-560 -715h-94zM105 339v248l-82 -46v107l102 67h114v-376h-134zM455 0l0.000976562 16.998l128 133c45.333 45.333 68 79 68 101s-10.333 33 -31 33c-22.667 0 -36 -17.667 -40 -53h-120c1.33301 48.667 16.666 85.834 45.999 111.501
s69.333 38.5 120 38.5s89.167 -11.167 115.5 -33.5s39.5 -51.166 39.5 -86.499c0 -24 -6.5 -46.167 -19.5 -66.5s-32.167 -42.5 -57.5 -66.5l-35 -33h113v-95h-327z" />
    <glyph glyph-name="threequarters" unicode="&#xbe;" horiz-adv-x="826" 
d="M189 332c-107.333 0 -163.333 44.668 -168 134.001h116c3.33301 -28 18.333 -42 45 -42c26 0 39 11.333 39 34s-15 34 -45 34h-30v74h30c30 0 45 11.333 45 34c0 19.333 -11.333 29 -34 29c-24 0 -38 -12.667 -42 -38h-116c3.33301 39.333 18.5 70.666 45.5 93.999
s65.5 35 115.5 35c49.333 0 87.666 -9.16699 114.999 -27.5s41 -43.833 41 -76.5c0 -41.333 -22.667 -68.333 -68 -81c22.667 -3.33301 41 -12.333 55 -27s21 -33 21 -55c0 -37.333 -14.167 -66.833 -42.5 -88.5s-69.166 -32.5 -122.499 -32.5zM114 0.000976562l560 715h94
l-560 -715h-94zM625 0.000976562v70h-187v49l156 257h159v-219h48v-87h-48v-70h-128zM552 157.001h77v131z" />
    <glyph glyph-name="questiondown" unicode="&#xbf;" horiz-adv-x="556" 
d="M387 364l0.000976562 -18.9971c0 -24 -5.5 -47.167 -16.5 -69.5s-22 -39.5 -33 -51.5s-26.833 -27.667 -47.5 -47c-14.667 -14 -25.834 -25 -33.501 -33s-15 -18.167 -22 -30.5s-10.5 -23.833 -10.5 -34.5c0 -40 20.333 -60 61 -60c22 0 39.833 7.66699 53.5 23
s22.167 37 25.5 65h174c-2.66699 -74.667 -28.167 -132.334 -76.5 -173.001s-111.5 -61 -189.5 -61c-77.333 0 -137 16.5 -179 49.5s-63 79.5 -63 139.5c0 51.333 24.333 101.333 73 150c7.33301 7.33301 19.5 18.666 36.5 33.999s29.5 27.166 37.5 35.499
s16.333 18.833 25 31.5s14 24.667 16 36v15h169zM303.001 610.003c30 0 55.333 -9.66699 76 -29s31 -42.666 31 -69.999c0 -28 -10.333 -51.667 -31 -71s-46 -29 -76 -29c-29.333 0 -54.5 9.66699 -75.5 29s-31.5 43 -31.5 71c0 27.333 10.5 50.666 31.5 69.999
s46.167 29 75.5 29z" />
    <glyph glyph-name="Agrave" unicode="&#xc0;" horiz-adv-x="747" 
d="M13 0l229 715h265l227 -715h-217l-38 133h-237l-38 -133h-191zM312 759l-100 146h186l49 -146h-135zM361 549l-79 -275h157z" />
    <glyph glyph-name="Aacute" unicode="&#xc1;" horiz-adv-x="747" 
d="M13 0l229 715h265l227 -715h-217l-38 133h-237l-38 -133h-191zM295 759l51 146h187l-103 -146h-135zM361 549l-79 -275h157z" />
    <glyph glyph-name="Acircumflex" unicode="&#xc2;" horiz-adv-x="747" 
d="M13 0l229 715h265l227 -715h-217l-38 133h-237l-38 -133h-191zM184 759l114 146h150l110 -146h-130l-59 49l-58 -49h-127zM361 549l-79 -275h157z" />
    <glyph glyph-name="Atilde" unicode="&#xc3;" horiz-adv-x="747" 
d="M13 0l229 715h265l227 -715h-217l-38 133h-237l-38 -133h-191zM436 758c-21.333 0 -44.6699 5.66699 -70.0029 17s-42 17 -50 17s-14.833 -3 -20.5 -9s-9.16699 -14 -10.5 -24h-102c3.33301 50 16.333 88 39 114s50.334 39 83.001 39c20 0 42.833 -5.5 68.5 -16.5
s43.167 -16.5 52.5 -16.5c16.667 0 27.334 10.667 32.001 32h101c-3.33301 -50 -16.666 -88 -39.999 -114s-51 -39 -83 -39zM360.996 549l-79 -275h157z" />
    <glyph glyph-name="Adieresis" unicode="&#xc4;" horiz-adv-x="747" 
d="M13 0l229 715h265l227 -715h-217l-38 133h-237l-38 -133h-191zM482 758c-24 0 -44.167 8 -60.5 24s-24.5 35.667 -24.5 59s8.16699 43.166 24.5 59.499s36.5 24.5 60.5 24.5s44.333 -8.16699 61 -24.5s25 -36.166 25 -59.499s-8.33301 -43 -25 -59s-37 -24 -61 -24z
M259 758c-23.333 0 -43.333 8.16699 -60 24.5s-25 35.833 -25 58.5c0 23.333 8.33301 43.166 25 59.499s36.667 24.5 60 24.5c24 0 44.333 -8.16699 61 -24.5s25 -36.166 25 -59.499s-8.33301 -43 -25 -59s-37 -24 -61 -24zM361 549l-79 -275h157z" />
    <glyph glyph-name="Aring" unicode="&#xc5;" horiz-adv-x="747" 
d="M13 0l229 715h265l227 -715h-217l-38 133h-237l-38 -133h-191zM371 744c-32.667 0 -60.8301 11.5 -84.4971 34.5s-35.5 50.167 -35.5 81.5c0 32 11.667 59.333 35 82s51.666 34 84.999 34s61.666 -11.333 84.999 -34s35 -50 35 -82c0 -31.333 -11.833 -58.5 -35.5 -81.5
s-51.834 -34.5 -84.501 -34.5zM361.004 549l-79 -275h157zM371.004 810c13.333 0 24.333 4.66504 33 13.998s13 21.333 13 36s-4.33301 26.834 -13 36.501s-19.667 14.5 -33 14.5c-14 0 -25.167 -4.66699 -33.5 -14s-12.5 -21.666 -12.5 -36.999
c0 -14.667 4.16699 -26.667 12.5 -36s19.5 -14 33.5 -14z" />
    <glyph glyph-name="AE" unicode="&#xc6;" horiz-adv-x="1002" 
d="M11 0l321 715h622v-158h-283v-123h223v-146h-223v-130h299v-158h-504v146h-197l-63 -146h-195zM446 557l-118 -273h138v273h-20z" />
    <glyph glyph-name="Ccedilla" unicode="&#xc7;" horiz-adv-x="759" 
d="M379 -226c-36 0 -65 7.99414 -87 23.9941s-35.333 39 -40 69h84c4.66699 -18.667 16.667 -28 36 -28c10 0 17.833 2.83301 23.5 8.5s8.5 12.834 8.5 21.501c0 9.33301 -3 16.833 -9 22.5s-14 8.5 -24 8.5c-12.667 0 -23.334 -3.66699 -32.001 -11l-39 38l42 65
c-102 10.667 -179.167 47.834 -231.5 111.501s-78.5 146.834 -78.5 249.501v8c0 108.667 34.333 196.667 103 264s156 101 262 101c96 0 173.333 -22.833 232 -68.5s92 -114.5 100 -206.5h-211c-8 75.333 -48 113 -120 113c-46.667 0 -83.334 -17.667 -110.001 -53
s-40 -85 -40 -149v-8c0 -64.667 13.333 -114.5 40 -149.5s64.334 -52.5 113.001 -52.5c36.667 0 66.834 9.83301 90.501 29.5s37.834 48.834 42.501 87.501h204c-6.66699 -89.333 -39.5 -158.166 -98.5 -206.499s-135.167 -73.166 -228.5 -74.499l-22 -33
c31.333 3.33301 57.666 -2.5 78.999 -17.5s32 -37.833 32 -68.5c0 -30 -11 -53.333 -33 -70s-51.333 -25 -88 -25z" />
    <glyph glyph-name="Egrave" unicode="&#xc8;" horiz-adv-x="612" 
d="M264 759l-100 146h186l49 -146h-135zM69 0v715h494v-158h-290v-123h231v-146h-231v-130h306v-158h-510z" />
    <glyph glyph-name="Eacute" unicode="&#xc9;" horiz-adv-x="612" 
d="M247 759l51 146h187l-103 -146h-135zM69 0v715h494v-158h-290v-123h231v-146h-231v-130h306v-158h-510z" />
    <glyph glyph-name="Ecircumflex" unicode="&#xca;" horiz-adv-x="612" 
d="M136 759l114 146h150l110 -146h-130l-59 49l-58 -49h-127zM69 0v715h494v-158h-290v-123h231v-146h-231v-130h306v-158h-510z" />
    <glyph glyph-name="Edieresis" unicode="&#xcb;" horiz-adv-x="612" 
d="M69 0v715h494v-158h-290v-123h231v-146h-231v-130h306v-158h-510zM211 758c-23.333 0 -43.333 8.16699 -60 24.5s-25 35.833 -25 58.5c0 23.333 8.33301 43.166 25 59.499s36.667 24.5 60 24.5c24 0 44.333 -8.16699 61 -24.5s25 -36.166 25 -59.499
s-8.33301 -43 -25 -59s-37 -24 -61 -24zM434 758c-24 0 -44.167 8 -60.5 24s-24.5 35.667 -24.5 59s8.16699 43.166 24.5 59.499s36.5 24.5 60.5 24.5s44.333 -8.16699 61 -24.5s25 -36.166 25 -59.499s-8.33301 -43 -25 -59s-37 -24 -61 -24z" />
    <glyph glyph-name="Igrave" unicode="&#xcc;" horiz-adv-x="352" 
d="M73 0v715h207v-715h-207zM117 759l-100 146h186l49 -146h-135z" />
    <glyph glyph-name="Iacute" unicode="&#xcd;" horiz-adv-x="352" 
d="M73 0v715h207v-715h-207zM100 759l51 146h187l-103 -146h-135z" />
    <glyph glyph-name="Icircumflex" unicode="&#xce;" horiz-adv-x="352" 
d="M73 0v715h207v-715h-207zM-11 759l114 146h150l110 -146h-130l-59 49l-58 -49h-127z" />
    <glyph glyph-name="Idieresis" unicode="&#xcf;" horiz-adv-x="352" 
d="M73 0v715h207v-715h-207zM64 758c-23.333 0 -43.333 8.16699 -60 24.5s-25 35.833 -25 58.5c0 23.333 8.33301 43.166 25 59.499s36.667 24.5 60 24.5c24 0 44.333 -8.16699 61 -24.5s25 -36.166 25 -59.499s-8.33301 -43 -25 -59s-37 -24 -61 -24zM287 758
c-24 0 -44.167 8 -60.5 24s-24.5 35.667 -24.5 59s8.16699 43.166 24.5 59.499s36.5 24.5 60.5 24.5s44.333 -8.16699 61 -24.5s25 -36.166 25 -59.499s-8.33301 -43 -25 -59s-37 -24 -61 -24z" />
    <glyph glyph-name="Eth" unicode="&#xd0;" horiz-adv-x="774" 
d="M29 290v138h59v287h259c126 0 221.333 -30.167 286 -90.5s97 -146.5 97 -258.5v-8c0 -113.333 -32.667 -201.333 -98 -264s-160.333 -94 -285 -94h-259v290h-59zM289 158h52c60 0 104.167 16.167 132.5 48.5s42.5 81.833 42.5 148.5v8c0 68 -14 117.333 -42 148
s-73 46 -135 46h-50v-129h120v-138h-120v-132z" />
    <glyph glyph-name="Ntilde" unicode="&#xd1;" horiz-adv-x="777" 
d="M471 758c-21.333 0 -44.6699 5.66699 -70.0029 17s-42 17 -50 17s-14.833 -3 -20.5 -9s-9.16699 -14 -10.5 -24h-102c3.33301 50 16.333 88 39 114s50.334 39 83.001 39c20 0 42.833 -5.5 68.5 -16.5s43.167 -16.5 52.5 -16.5c16.667 0 27.334 10.667 32.001 32h101
c-3.33301 -50 -16.666 -88 -39.999 -114s-51 -39 -83 -39zM68.9961 0v715h231l229 -403v403h179v-715h-198l-261 449v-449h-180z" />
    <glyph glyph-name="Ograve" unicode="&#xd2;" horiz-adv-x="819" 
d="M349 759l-100 146h186l49 -146h-135zM410 149c50.667 0 90.668 18.333 120.001 55s44 87 44 151v8c0 63.333 -14.833 112.833 -44.5 148.5s-69.834 53.5 -120.501 53.5s-90.667 -17.667 -120 -53s-44 -85.333 -44 -150v-8c0 -64 15 -114.167 45 -150.5
s70 -54.5 120 -54.5zM406.001 -12c-114 0 -205.001 33.667 -273.001 101s-102 155.333 -102 264v8c0 107.333 35.833 194.833 107.5 262.5s161.834 101.5 270.501 101.5c110.667 0 201.5 -32.5 272.5 -97.5s106.5 -152.167 106.5 -261.5v-8
c0 -110.667 -34.833 -200 -104.5 -268s-162.167 -102 -277.5 -102z" />
    <glyph glyph-name="Oacute" unicode="&#xd3;" horiz-adv-x="819" 
d="M332 759l51 146h187l-103 -146h-135zM410 149c50.667 0 90.668 18.333 120.001 55s44 87 44 151v8c0 63.333 -14.833 112.833 -44.5 148.5s-69.834 53.5 -120.501 53.5s-90.667 -17.667 -120 -53s-44 -85.333 -44 -150v-8c0 -64 15 -114.167 45 -150.5
s70 -54.5 120 -54.5zM406.001 -12c-114 0 -205.001 33.667 -273.001 101s-102 155.333 -102 264v8c0 107.333 35.833 194.833 107.5 262.5s161.834 101.5 270.501 101.5c110.667 0 201.5 -32.5 272.5 -97.5s106.5 -152.167 106.5 -261.5v-8
c0 -110.667 -34.833 -200 -104.5 -268s-162.167 -102 -277.5 -102z" />
    <glyph glyph-name="Ocircumflex" unicode="&#xd4;" horiz-adv-x="819" 
d="M221 759l114 146h150l110 -146h-130l-59 49l-58 -49h-127zM410 149c50.667 0 90.668 18.333 120.001 55s44 87 44 151v8c0 63.333 -14.833 112.833 -44.5 148.5s-69.834 53.5 -120.501 53.5s-90.667 -17.667 -120 -53s-44 -85.333 -44 -150v-8
c0 -64 15 -114.167 45 -150.5s70 -54.5 120 -54.5zM406.001 -12c-114 0 -205.001 33.667 -273.001 101s-102 155.333 -102 264v8c0 107.333 35.833 194.833 107.5 262.5s161.834 101.5 270.501 101.5c110.667 0 201.5 -32.5 272.5 -97.5s106.5 -152.167 106.5 -261.5v-8
c0 -110.667 -34.833 -200 -104.5 -268s-162.167 -102 -277.5 -102z" />
    <glyph glyph-name="Otilde" unicode="&#xd5;" horiz-adv-x="819" 
d="M473 758c-21.333 0 -44.6699 5.66699 -70.0029 17s-42 17 -50 17s-14.833 -3 -20.5 -9s-9.16699 -14 -10.5 -24h-102c3.33301 50 16.333 88 39 114s50.334 39 83.001 39c20 0 42.833 -5.5 68.5 -16.5s43.167 -16.5 52.5 -16.5c16.667 0 27.334 10.667 32.001 32h101
c-3.33301 -50 -16.666 -88 -39.999 -114s-51 -39 -83 -39zM409.996 149c50.667 0 90.668 18.333 120.001 55s44 87 44 151v8c0 63.333 -14.833 112.833 -44.5 148.5s-69.834 53.5 -120.501 53.5s-90.667 -17.667 -120 -53s-44 -85.333 -44 -150v-8
c0 -64 15 -114.167 45 -150.5s70 -54.5 120 -54.5zM405.997 -12c-114 0 -205.001 33.667 -273.001 101s-102 155.333 -102 264v8c0 107.333 35.833 194.833 107.5 262.5s161.834 101.5 270.501 101.5c110.667 0 201.5 -32.5 272.5 -97.5s106.5 -152.167 106.5 -261.5v-8
c0 -110.667 -34.833 -200 -104.5 -268s-162.167 -102 -277.5 -102z" />
    <glyph glyph-name="Odieresis" unicode="&#xd6;" horiz-adv-x="819" 
d="M296 758c-23.333 0 -43.333 8.16699 -60 24.5s-25 35.833 -25 58.5c0 23.333 8.33301 43.166 25 59.499s36.667 24.5 60 24.5c24 0 44.333 -8.16699 61 -24.5s25 -36.166 25 -59.499s-8.33301 -43 -25 -59s-37 -24 -61 -24zM519 758c-24 0 -44.167 8 -60.5 24
s-24.5 35.667 -24.5 59s8.16699 43.166 24.5 59.499s36.5 24.5 60.5 24.5s44.333 -8.16699 61 -24.5s25 -36.166 25 -59.499s-8.33301 -43 -25 -59s-37 -24 -61 -24zM410 149c50.667 0 90.668 18.333 120.001 55s44 87 44 151v8c0 63.333 -14.833 112.833 -44.5 148.5
s-69.834 53.5 -120.501 53.5s-90.667 -17.667 -120 -53s-44 -85.333 -44 -150v-8c0 -64 15 -114.167 45 -150.5s70 -54.5 120 -54.5zM406.001 -12c-114 0 -205.001 33.667 -273.001 101s-102 155.333 -102 264v8c0 107.333 35.833 194.833 107.5 262.5
s161.834 101.5 270.501 101.5c110.667 0 201.5 -32.5 272.5 -97.5s106.5 -152.167 106.5 -261.5v-8c0 -110.667 -34.833 -200 -104.5 -268s-162.167 -102 -277.5 -102z" />
    <glyph glyph-name="multiply" unicode="&#xd7;" horiz-adv-x="571" 
d="M133 90l-94 94l152 152l-155 154l95 96l154 -156l153 153l94 -95l-153 -152l155 -154l-95 -95l-154 155z" />
    <glyph glyph-name="Oslash" unicode="&#xd8;" horiz-adv-x="819" 
d="M91 -32l-59.001 57.999l80 85c-54 64.667 -81 145.334 -81 242.001v8c0 107.333 35.833 194.833 107.5 262.5s161.834 101.5 270.501 101.5c87.333 0 163 -20.667 227 -62l73 77l59 -58l-69 -73c59.333 -63.333 89 -144.333 89 -243v-8
c0 -110.667 -34.833 -200 -104.5 -268s-162.167 -102 -277.5 -102c-92 0 -169.667 22.333 -233 67zM409.999 148.999c51.333 0 91.832 18.333 121.499 55s44.5 87 44.5 151v8c0 36 -5.33301 69 -16 99l-260 -273c28.667 -26.667 65.334 -40 110.001 -40zM242.998 353.999
c0 -36 4.33301 -66.667 13 -92l255 270c-27.333 22 -61.333 33 -102 33c-51.333 0 -91.833 -17.667 -121.5 -53s-44.5 -85.333 -44.5 -150v-8z" />
    <glyph glyph-name="Ugrave" unicode="&#xd9;" horiz-adv-x="764" 
d="M321 759l-100 146h186l49 -146h-135zM381 -12c-102 0 -180.333 25.5 -235 76.5s-82 126.167 -82 225.5v425h205v-416c0 -52.667 8.16699 -90.834 24.5 -114.501s45.5 -35.5 87.5 -35.5c41.333 0 70.333 11.833 87 35.5s25 62.834 25 117.501v413h207v-422
c0 -101.333 -27.833 -177.5 -83.5 -228.5s-134.167 -76.5 -235.5 -76.5z" />
    <glyph glyph-name="Uacute" unicode="&#xda;" horiz-adv-x="764" 
d="M304 759l51 146h187l-103 -146h-135zM381 -12c-102 0 -180.333 25.5 -235 76.5s-82 126.167 -82 225.5v425h205v-416c0 -52.667 8.16699 -90.834 24.5 -114.501s45.5 -35.5 87.5 -35.5c41.333 0 70.333 11.833 87 35.5s25 62.834 25 117.501v413h207v-422
c0 -101.333 -27.833 -177.5 -83.5 -228.5s-134.167 -76.5 -235.5 -76.5z" />
    <glyph glyph-name="Ucircumflex" unicode="&#xdb;" horiz-adv-x="764" 
d="M193 759l114 146h150l110 -146h-130l-59 49l-58 -49h-127zM381 -12c-102 0 -180.333 25.5 -235 76.5s-82 126.167 -82 225.5v425h205v-416c0 -52.667 8.16699 -90.834 24.5 -114.501s45.5 -35.5 87.5 -35.5c41.333 0 70.333 11.833 87 35.5s25 62.834 25 117.501v413h207
v-422c0 -101.333 -27.833 -177.5 -83.5 -228.5s-134.167 -76.5 -235.5 -76.5z" />
    <glyph glyph-name="Udieresis" unicode="&#xdc;" horiz-adv-x="764" 
d="M381 -12c-102 0 -180.333 25.5 -235 76.5s-82 126.167 -82 225.5v425h205v-416c0 -52.667 8.16699 -90.834 24.5 -114.501s45.5 -35.5 87.5 -35.5c41.333 0 70.333 11.833 87 35.5s25 62.834 25 117.501v413h207v-422c0 -101.333 -27.833 -177.5 -83.5 -228.5
s-134.167 -76.5 -235.5 -76.5zM268 758c-23.333 0 -43.333 8.16699 -60 24.5s-25 35.833 -25 58.5c0 23.333 8.33301 43.166 25 59.499s36.667 24.5 60 24.5c24 0 44.333 -8.16699 61 -24.5s25 -36.166 25 -59.499s-8.33301 -43 -25 -59s-37 -24 -61 -24zM491 758
c-24 0 -44.167 8 -60.5 24s-24.5 35.667 -24.5 59s8.16699 43.166 24.5 59.499s36.5 24.5 60.5 24.5s44.333 -8.16699 61 -24.5s25 -36.166 25 -59.499s-8.33301 -43 -25 -59s-37 -24 -61 -24z" />
    <glyph glyph-name="Yacute" unicode="&#xdd;" horiz-adv-x="677" 
d="M241 0v306l-233 409h223l121 -241l121 241h196l-222 -409v-306h-206zM269 759l51 146h187l-103 -146h-135z" />
    <glyph glyph-name="Thorn" unicode="&#xde;" horiz-adv-x="652" 
d="M69 0v715h204v-117h68c97.333 0 169.5 -19 216.5 -57s70.5 -95.667 70.5 -173v-4c0 -74 -24.167 -130.667 -72.5 -170s-116.833 -59 -205.5 -59h-77v-135h-204zM273 275h59c67.333 0 101 29.333 101 88v4c0 56.667 -33.333 85 -100 85h-60v-177z" />
    <glyph glyph-name="germandbls" unicode="&#xdf;" horiz-adv-x="636" 
d="M381 -10c-36 0 -68.002 3.66211 -96.002 10.9951v135c18 -6 34.333 -9 49 -9c64 0 96 38.667 96 116v6c0 42.667 -12.167 72.834 -36.5 90.501s-58.5 26.834 -102.5 27.501v133c31.333 0 55 7.66699 71 23s24 33.666 24 54.999v3c0 22.667 -6.5 40.334 -19.5 53.001
s-31.5 19 -55.5 19s-43.167 -8.33301 -57.5 -25s-21.5 -39.667 -21.5 -69v-559h-179v544c0 76 25.167 132.833 75.5 170.5s114.833 56.5 193.5 56.5c72.667 0 129.834 -15.667 171.501 -47s62.5 -76.666 62.5 -135.999v-2c0 -33.333 -11 -62.666 -33 -87.999
s-50.667 -43.333 -86 -54c50.667 -11.333 92.5 -34.666 125.5 -69.999s49.5 -81 49.5 -137v-7c0 -78 -21.167 -137.5 -63.5 -178.5s-98.166 -61.5 -167.499 -61.5z" />
    <glyph glyph-name="agrave" unicode="&#xe0;" horiz-adv-x="578" 
d="M200 -12c-51.333 0 -93.666 12.999 -126.999 38.999s-50 65.333 -50 118c0 114 92.667 171 278 171h50v12c0 27.333 -4.83301 48 -14.5 62s-27.834 21 -54.501 21c-42 0 -65.667 -20.667 -71 -62h-168c4 61.333 28.333 108 73 140s103.667 48 177 48
c74.667 0 132.667 -16.167 174 -48.5s62 -82.166 62 -149.499v-339h-174v61c-32 -48.667 -83.667 -73 -155 -73zM262 108.999c26 0 47.333 6.83203 64 20.499s25 31.5 25 53.5v32h-47c-36.667 0 -63.167 -4.16699 -79.5 -12.5s-24.5 -23.166 -24.5 -44.499
c0 -32.667 20.667 -49 62 -49zM232 582.998l-105 166h180l53 -166h-128z" />
    <glyph glyph-name="aacute" unicode="&#xe1;" horiz-adv-x="578" 
d="M200 -12c-51.333 0 -93.666 12.999 -126.999 38.999s-50 65.333 -50 118c0 114 92.667 171 278 171h50v12c0 27.333 -4.83301 48 -14.5 62s-27.834 21 -54.501 21c-42 0 -65.667 -20.667 -71 -62h-168c4 61.333 28.333 108 73 140s103.667 48 177 48
c74.667 0 132.667 -16.167 174 -48.5s62 -82.166 62 -149.499v-339h-174v61c-32 -48.667 -83.667 -73 -155 -73zM262 108.999c26 0 47.333 6.83203 64 20.499s25 31.5 25 53.5v32h-47c-36.667 0 -63.167 -4.16699 -79.5 -12.5s-24.5 -23.166 -24.5 -44.499
c0 -32.667 20.667 -49 62 -49zM222 582.998l53 166h180l-105 -166h-128z" />
    <glyph glyph-name="acircumflex" unicode="&#xe2;" horiz-adv-x="578" 
d="M200 -12c-51.333 0 -93.666 12.999 -126.999 38.999s-50 65.333 -50 118c0 114 92.667 171 278 171h50v12c0 27.333 -4.83301 48 -14.5 62s-27.834 21 -54.501 21c-42 0 -65.667 -20.667 -71 -62h-168c4 61.333 28.333 108 73 140s103.667 48 177 48
c74.667 0 132.667 -16.167 174 -48.5s62 -82.166 62 -149.499v-339h-174v61c-32 -48.667 -83.667 -73 -155 -73zM262 108.999c26 0 47.333 6.83203 64 20.499s25 31.5 25 53.5v32h-47c-36.667 0 -63.167 -4.16699 -79.5 -12.5s-24.5 -23.166 -24.5 -44.499
c0 -32.667 20.667 -49 62 -49zM102 584.998l123 163h128l118 -163h-125l-61 56l-60 -56h-123z" />
    <glyph glyph-name="atilde" unicode="&#xe3;" horiz-adv-x="578" 
d="M200 -12c-51.333 0 -93.666 12.999 -126.999 38.999s-50 65.333 -50 118c0 114 92.667 171 278 171h50v12c0 27.333 -4.83301 48 -14.5 62s-27.834 21 -54.501 21c-42 0 -65.667 -20.667 -71 -62h-168c4 61.333 28.333 108 73 140s103.667 48 177 48
c74.667 0 132.667 -16.167 174 -48.5s62 -82.166 62 -149.499v-339h-174v61c-32 -48.667 -83.667 -73 -155 -73zM262 108.999c26 0 47.333 6.83203 64 20.499s25 31.5 25 53.5v32h-47c-36.667 0 -63.167 -4.16699 -79.5 -12.5s-24.5 -23.166 -24.5 -44.499
c0 -32.667 20.667 -49 62 -49zM355 586.998c-20.667 0 -43.335 5.50098 -68.002 16.501s-41 16.5 -49 16.5c-17.333 0 -27.666 -10.667 -30.999 -32h-97c3.33301 51.333 15.333 90.166 36 116.499s47 39.5 79 39.5c20 0 42.5 -5.66699 67.5 -17s42.167 -17 51.5 -17
c16.667 0 27.334 10.667 32.001 32h97c-4 -50 -16.833 -88.333 -38.5 -115s-48.167 -40 -79.5 -40z" />
    <glyph glyph-name="adieresis" unicode="&#xe4;" horiz-adv-x="578" 
d="M200 -12c-51.333 0 -93.666 12.999 -126.999 38.999s-50 65.333 -50 118c0 114 92.667 171 278 171h50v12c0 27.333 -4.83301 48 -14.5 62s-27.834 21 -54.501 21c-42 0 -65.667 -20.667 -71 -62h-168c4 61.333 28.333 108 73 140s103.667 48 177 48
c74.667 0 132.667 -16.167 174 -48.5s62 -82.166 62 -149.499v-339h-174v61c-32 -48.667 -83.667 -73 -155 -73zM262 108.999c26 0 47.333 6.83203 64 20.499s25 31.5 25 53.5v32h-47c-36.667 0 -63.167 -4.16699 -79.5 -12.5s-24.5 -23.166 -24.5 -44.499
c0 -32.667 20.667 -49 62 -49zM184 579.998c-23.333 0 -43.333 8.16699 -60 24.5s-25 35.833 -25 58.5c0 23.333 8.33301 43.166 25 59.499s36.667 24.5 60 24.5c24 0 44.333 -8.16699 61 -24.5s25 -36.166 25 -59.499s-8.33301 -43 -25 -59s-37 -24 -61 -24zM397 579.998
c-24 0 -44.167 8 -60.5 24s-24.5 35.667 -24.5 59s8.16699 43.166 24.5 59.499s36.5 24.5 60.5 24.5s44.333 -8.16699 61 -24.5s25 -36.166 25 -59.499s-8.33301 -43 -25 -59s-37 -24 -61 -24z" />
    <glyph glyph-name="aring" unicode="&#xe5;" horiz-adv-x="578" 
d="M200 -12c-51.333 0 -93.666 12.999 -126.999 38.999s-50 65.333 -50 118c0 114 92.667 171 278 171h50v12c0 27.333 -4.83301 48 -14.5 62s-27.834 21 -54.501 21c-42 0 -65.667 -20.667 -71 -62h-168c4 61.333 28.333 108 73 140s103.667 48 177 48
c74.667 0 132.667 -16.167 174 -48.5s62 -82.166 62 -149.499v-339h-174v61c-32 -48.667 -83.667 -73 -155 -73zM262 108.999c26 0 47.333 6.83203 64 20.499s25 31.5 25 53.5v32h-47c-36.667 0 -63.167 -4.16699 -79.5 -12.5s-24.5 -23.166 -24.5 -44.499
c0 -32.667 20.667 -49 62 -49zM291 641.998c13.333 0 24.333 4.66699 33 14s13 21.333 13 36s-4.33301 26.667 -13 36s-19.667 14 -33 14s-24.333 -4.66699 -33 -14s-13 -21.333 -13 -36s4.33301 -26.667 13 -36s19.667 -14 33 -14zM291 577.998
c-32.667 0 -60.5 11.167 -83.5 33.5s-34.5 49.166 -34.5 80.499s11.5 58.333 34.5 81s50.833 34 83.5 34s60.5 -11.333 83.5 -34s34.5 -49.667 34.5 -81s-11.5 -58.166 -34.5 -80.499s-50.833 -33.5 -83.5 -33.5z" />
    <glyph glyph-name="ae" unicode="&#xe6;" horiz-adv-x="908" 
d="M627 -12c-94 0 -161.667 30.332 -203 90.999c-46 -60.667 -115 -91 -207 -91c-57.333 0 -104 13 -140 39s-54 65.333 -54 118c0 116 92.333 174 277 174h53v9c0 27.333 -5 48 -15 62s-28.333 21 -55 21c-42 0 -66 -20.667 -72 -62h-168c4 61.333 28 108 72 140
s101 48 171 48c80 0 136.333 -20.667 169 -62c43.333 41.333 99 62 167 62c76 0 138.667 -22.667 188 -68s74 -112.666 74 -201.999v-46h-360c5.33301 -73.333 40 -110 104 -110c51.333 0 81 20.667 89 62h167c-8 -59.333 -34 -105 -78 -137s-103.667 -48 -179 -48z
M525 318.999h185.999c-4 66.667 -33.667 100 -89 100c-26.667 0 -48.667 -8.66699 -66 -26s-27.666 -42 -30.999 -74zM262.999 108.999c27.333 0 49.167 6.66699 65.5 20s24.5 31.333 24.5 54v35h-50c-36 0 -62.167 -4 -78.5 -12s-24.5 -22.667 -24.5 -44
c0 -35.333 21 -53 63 -53z" />
    <glyph glyph-name="ccedilla" unicode="&#xe7;" horiz-adv-x="583" 
d="M281 -226c-36 0 -64.9961 7.99902 -86.9961 23.999s-35.333 39 -40 69h84c4.66699 -18.667 16.667 -28 36 -28c10 0 17.833 2.83301 23.5 8.5s8.5 12.834 8.5 21.501c0 9.33301 -3 16.833 -9 22.5s-14 8.5 -24 8.5c-12.667 0 -23.334 -3.66699 -32.001 -11l-39 38l43 65
c-66.667 10 -120 37.5 -160 82.5s-60 105.167 -60 180.5v8c0 84.667 26.5 151.5 79.5 200.5s119.5 73.5 199.5 73.5c45.333 0 85.833 -6.5 121.5 -19.5s66.167 -36.167 91.5 -69.5s39.666 -75.333 42.999 -126h-168c-8 50.667 -36 76 -84 76c-32 0 -56.667 -11.333 -74 -34
s-26 -55.667 -26 -99v-8c0 -92 34.333 -138 103 -138c25.333 0 46.166 7.5 62.499 22.5s25.833 36.5 28.5 64.5h161c-2.66699 -66 -25.167 -118.167 -67.5 -156.5s-102.833 -58.833 -181.5 -61.5l-23 -33c31.333 3.33301 57.666 -2.5 78.999 -17.5s32 -37.833 32 -68.5
c0 -30 -11 -53.333 -33 -70s-51.333 -25 -88 -25z" />
    <glyph glyph-name="egrave" unicode="&#xe8;" horiz-adv-x="598" 
d="M309 -12c-84 0 -152.333 23.667 -205 71s-79 112.666 -79 195.999v8c0 82 27 148.167 81 198.5s121.333 75.5 202 75.5c76.667 0 140.167 -22.667 190.5 -68s75.5 -112.666 75.5 -201.999v-47h-368c2.66699 -34.667 13.5 -61.5 32.5 -80.5s44.5 -28.5 76.5 -28.5
c52.667 0 83 20.667 91 62h168c-8 -59.333 -34.5 -105 -79.5 -137s-106.833 -48 -185.5 -48zM208 321h191.999c-3.33301 65.333 -34 98 -92 98c-27.333 0 -49.666 -8.5 -66.999 -25.5s-28.333 -41.167 -33 -72.5zM243.999 583l-105 166h180l53 -166h-128z" />
    <glyph glyph-name="eacute" unicode="&#xe9;" horiz-adv-x="598" 
d="M234 583l53 166h180l-105 -166h-128zM309 -12c-84 0 -152.333 23.667 -205 71s-79 112.666 -79 195.999v8c0 82 27 148.167 81 198.5s121.333 75.5 202 75.5c76.667 0 140.167 -22.667 190.5 -68s75.5 -112.666 75.5 -201.999v-47h-368
c2.66699 -34.667 13.5 -61.5 32.5 -80.5s44.5 -28.5 76.5 -28.5c52.667 0 83 20.667 91 62h168c-8 -59.333 -34.5 -105 -79.5 -137s-106.833 -48 -185.5 -48zM208 321h191.999c-3.33301 65.333 -34 98 -92 98c-27.333 0 -49.666 -8.5 -66.999 -25.5
s-28.333 -41.167 -33 -72.5z" />
    <glyph glyph-name="ecircumflex" unicode="&#xea;" horiz-adv-x="598" 
d="M118 585l123 163h128l118 -163h-125l-61 56l-60 -56h-123zM309 -12c-84 0 -152.333 23.667 -205 71s-79 112.666 -79 195.999v8c0 82 27 148.167 81 198.5s121.333 75.5 202 75.5c76.667 0 140.167 -22.667 190.5 -68s75.5 -112.666 75.5 -201.999v-47h-368
c2.66699 -34.667 13.5 -61.5 32.5 -80.5s44.5 -28.5 76.5 -28.5c52.667 0 83 20.667 91 62h168c-8 -59.333 -34.5 -105 -79.5 -137s-106.833 -48 -185.5 -48zM208 321h191.999c-3.33301 65.333 -34 98 -92 98c-27.333 0 -49.666 -8.5 -66.999 -25.5
s-28.333 -41.167 -33 -72.5z" />
    <glyph glyph-name="edieresis" unicode="&#xeb;" horiz-adv-x="598" 
d="M196 580c-23.333 0 -43.333 8.16699 -60 24.5s-25 35.833 -25 58.5c0 23.333 8.33301 43.166 25 59.499s36.667 24.5 60 24.5c24 0 44.333 -8.16699 61 -24.5s25 -36.166 25 -59.499s-8.33301 -43 -25 -59s-37 -24 -61 -24zM409 580c-24 0 -44.167 8 -60.5 24
s-24.5 35.667 -24.5 59s8.16699 43.166 24.5 59.499s36.5 24.5 60.5 24.5s44.333 -8.16699 61 -24.5s25 -36.166 25 -59.499s-8.33301 -43 -25 -59s-37 -24 -61 -24zM309 -12c-84 0 -152.333 23.667 -205 71s-79 112.666 -79 195.999v8c0 82 27 148.167 81 198.5
s121.333 75.5 202 75.5c76.667 0 140.167 -22.667 190.5 -68s75.5 -112.666 75.5 -201.999v-47h-368c2.66699 -34.667 13.5 -61.5 32.5 -80.5s44.5 -28.5 76.5 -28.5c52.667 0 83 20.667 91 62h168c-8 -59.333 -34.5 -105 -79.5 -137s-106.833 -48 -185.5 -48zM208 321
h191.999c-3.33301 65.333 -34 98 -92 98c-27.333 0 -49.666 -8.5 -66.999 -25.5s-28.333 -41.167 -33 -72.5z" />
    <glyph glyph-name="igrave" unicode="&#xec;" horiz-adv-x="295" 
d="M58 0v523h179v-523h-179zM89 583l-105 166h180l53 -166h-128z" />
    <glyph glyph-name="iacute" unicode="&#xed;" horiz-adv-x="295" 
d="M79 583l53 166h180l-105 -166h-128zM58 0v523h179v-523h-179z" />
    <glyph glyph-name="icircumflex" unicode="&#xee;" horiz-adv-x="295" 
d="M-37 585l123 163h128l118 -163h-125l-61 56l-60 -56h-123zM58 0v523h179v-523h-179z" />
    <glyph glyph-name="idieresis" unicode="&#xef;" horiz-adv-x="295" 
d="M42 580c-23.333 0 -43.333 8.16699 -60 24.5s-25 35.833 -25 58.5c0 23.333 8.33301 43.166 25 59.499s36.667 24.5 60 24.5c24 0 44.333 -8.16699 61 -24.5s25 -36.166 25 -59.499s-8.33301 -43 -25 -59s-37 -24 -61 -24zM252 580c-23.333 0 -43.333 8.16699 -60 24.5
s-25 35.833 -25 58.5c0 23.333 8.33301 43.166 25 59.499s36.667 24.5 60 24.5c24 0 44.333 -8.16699 61 -24.5s25 -36.166 25 -59.499s-8.33301 -43 -25 -59s-37 -24 -61 -24zM58 0v523h179v-523h-179z" />
    <glyph glyph-name="eth" unicode="&#xf0;" horiz-adv-x="623" 
d="M141 556l-23.999 61.999l109 40c-33.333 29.333 -73.333 61 -120 95h198c26.667 -16.667 47.667 -30.667 63 -42l106 39l24 -63l-70 -26c113.333 -105.333 170 -224 170 -356v-22c0 -90.667 -26.333 -162.5 -79 -215.5s-122.667 -79.5 -210 -79.5
c-82.667 0 -150.5 24.667 -203.5 74s-79.5 116.333 -79.5 201v11c0 76.667 23.5 138.334 70.5 185.001s101.5 70 163.5 70c25.333 0 45.666 -3.33301 60.999 -10s31 -18 47 -34c-18.667 39.333 -47.667 80 -87 122zM312.001 120.999c33.333 0 58.833 11.833 76.5 35.5
s26.5 57.5 26.5 101.5v8c0 91.333 -34.333 137 -103 137c-33.333 0 -59 -11.5 -77 -34.5s-27 -56.5 -27 -100.5v-8c0 -92.667 34.667 -139 104 -139z" />
    <glyph glyph-name="ntilde" unicode="&#xf1;" horiz-adv-x="624" 
d="M53 0l-0.000976562 523.001h179v-84c15.333 29.333 37.5 53 66.5 71s64.167 27 105.5 27c52.667 0 94.334 -16.667 125.001 -50s46 -82.333 46 -147v-340h-179v304c0 58.667 -25 88 -75 88c-27.333 0 -49 -8.33301 -65 -25s-24 -41.334 -24 -74.001v-293h-179z
M376.999 587.001c-20.667 0 -43.335 5.50098 -68.002 16.501s-41 16.5 -49 16.5c-17.333 0 -27.666 -10.667 -30.999 -32h-97c3.33301 51.333 15.333 90.166 36 116.499s47 39.5 79 39.5c20 0 42.5 -5.66699 67.5 -17s42.167 -17 51.5 -17c16.667 0 27.334 10.667 32.001 32
h97c-4 -50 -16.833 -88.333 -38.5 -115s-48.167 -40 -79.5 -40z" />
    <glyph glyph-name="ograve" unicode="&#xf2;" horiz-adv-x="622" 
d="M312 121c33.333 0 58.833 11.833 76.5 35.5s26.5 57.5 26.5 101.5v8c0 91.333 -34.333 137 -103 137c-33.333 0 -59 -11.5 -77 -34.5s-27 -56.5 -27 -100.5v-8c0 -92.667 34.667 -139 104 -139zM311 -12c-82.667 0 -151 24 -205 72s-81 113 -81 195v8
c0 82.667 27.167 149 81.5 199s122.833 75 205.5 75c82 0 150 -24.5 204 -73.5s81 -114.167 81 -195.5v-8c0 -83.333 -27 -149.5 -81 -198.5s-122.333 -73.5 -205 -73.5zM252 583l-105 166h180l53 -166h-128z" />
    <glyph glyph-name="oacute" unicode="&#xf3;" horiz-adv-x="622" 
d="M242 583l53 166h180l-105 -166h-128zM312 121c33.333 0 58.833 11.833 76.5 35.5s26.5 57.5 26.5 101.5v8c0 91.333 -34.333 137 -103 137c-33.333 0 -59 -11.5 -77 -34.5s-27 -56.5 -27 -100.5v-8c0 -92.667 34.667 -139 104 -139zM311 -12c-82.667 0 -151 24 -205 72
s-81 113 -81 195v8c0 82.667 27.167 149 81.5 199s122.833 75 205.5 75c82 0 150 -24.5 204 -73.5s81 -114.167 81 -195.5v-8c0 -83.333 -27 -149.5 -81 -198.5s-122.333 -73.5 -205 -73.5z" />
    <glyph glyph-name="ocircumflex" unicode="&#xf4;" horiz-adv-x="622" 
d="M126 585l123 163h128l118 -163h-125l-61 56l-60 -56h-123zM312 121c33.333 0 58.833 11.833 76.5 35.5s26.5 57.5 26.5 101.5v8c0 91.333 -34.333 137 -103 137c-33.333 0 -59 -11.5 -77 -34.5s-27 -56.5 -27 -100.5v-8c0 -92.667 34.667 -139 104 -139zM311 -12
c-82.667 0 -151 24 -205 72s-81 113 -81 195v8c0 82.667 27.167 149 81.5 199s122.833 75 205.5 75c82 0 150 -24.5 204 -73.5s81 -114.167 81 -195.5v-8c0 -83.333 -27 -149.5 -81 -198.5s-122.333 -73.5 -205 -73.5z" />
    <glyph glyph-name="otilde" unicode="&#xf5;" horiz-adv-x="622" 
d="M312 121c33.333 0 58.833 11.833 76.5 35.5s26.5 57.5 26.5 101.5v8c0 91.333 -34.333 137 -103 137c-33.333 0 -59 -11.5 -77 -34.5s-27 -56.5 -27 -100.5v-8c0 -92.667 34.667 -139 104 -139zM311 -12c-82.667 0 -151 24 -205 72s-81 113 -81 195v8
c0 82.667 27.167 149 81.5 199s122.833 75 205.5 75c82 0 150 -24.5 204 -73.5s81 -114.167 81 -195.5v-8c0 -83.333 -27 -149.5 -81 -198.5s-122.333 -73.5 -205 -73.5zM375 587c-20.667 0 -43.335 5.50098 -68.002 16.501s-41 16.5 -49 16.5
c-17.333 0 -27.666 -10.667 -30.999 -32h-97c3.33301 51.333 15.333 90.166 36 116.499s47 39.5 79 39.5c20 0 42.5 -5.66699 67.5 -17s42.167 -17 51.5 -17c16.667 0 27.334 10.667 32.001 32h97c-4 -50 -16.833 -88.333 -38.5 -115s-48.167 -40 -79.5 -40z" />
    <glyph glyph-name="odieresis" unicode="&#xf6;" horiz-adv-x="622" 
d="M204 580c-23.333 0 -43.333 8.16699 -60 24.5s-25 35.833 -25 58.5c0 23.333 8.33301 43.166 25 59.499s36.667 24.5 60 24.5c24 0 44.333 -8.16699 61 -24.5s25 -36.166 25 -59.499s-8.33301 -43 -25 -59s-37 -24 -61 -24zM417 580c-24 0 -44.167 8 -60.5 24
s-24.5 35.667 -24.5 59s8.16699 43.166 24.5 59.499s36.5 24.5 60.5 24.5s44.333 -8.16699 61 -24.5s25 -36.166 25 -59.499s-8.33301 -43 -25 -59s-37 -24 -61 -24zM312 121c33.333 0 58.833 11.833 76.5 35.5s26.5 57.5 26.5 101.5v8c0 91.333 -34.333 137 -103 137
c-33.333 0 -59 -11.5 -77 -34.5s-27 -56.5 -27 -100.5v-8c0 -92.667 34.667 -139 104 -139zM311 -12c-82.667 0 -151 24 -205 72s-81 113 -81 195v8c0 82.667 27.167 149 81.5 199s122.833 75 205.5 75c82 0 150 -24.5 204 -73.5s81 -114.167 81 -195.5v-8
c0 -83.333 -27 -149.5 -81 -198.5s-122.333 -73.5 -205 -73.5z" />
    <glyph glyph-name="divide" unicode="&#xf7;" horiz-adv-x="572" 
d="M286 43c-26 0 -48.167 8.83301 -66.5 26.5s-27.5 39.5 -27.5 65.5c0 25.333 9.16699 47.166 27.5 65.499s40.5 27.5 66.5 27.5s48.167 -9.16699 66.5 -27.5s27.5 -40.166 27.5 -65.499c0 -26 -9.16699 -47.833 -27.5 -65.5s-40.5 -26.5 -66.5 -26.5zM37 278v124h498v-124
h-498zM286 452c-26 0 -48.167 9.16699 -66.5 27.5s-27.5 40.166 -27.5 65.499c0 26 9.16699 47.833 27.5 65.5s40.5 26.5 66.5 26.5s48.167 -8.83301 66.5 -26.5s27.5 -39.5 27.5 -65.5c0 -25.333 -9.16699 -47.166 -27.5 -65.499s-40.5 -27.5 -66.5 -27.5z" />
    <glyph glyph-name="oslash" unicode="&#xf8;" horiz-adv-x="622" 
d="M73 -39l-51.998 47.999l66 70c-41.333 46.667 -62 105.334 -62 176.001v8c0 82.667 27.167 149 81.5 199s122.833 75 205.5 75c61.333 0 115.666 -14.333 162.999 -43l65 69l52 -48l-62 -66c44.667 -48.667 67 -109 67 -181v-8c0 -83.333 -27 -149.5 -81 -198.5
s-122.333 -73.5 -205 -73.5c-64.667 0 -121.334 15 -170.001 45zM312.002 119.999c34 0 60 12 78 36s27 58 27 102v8c0 20.667 -2 39 -6 55l-167 -178c17.333 -15.333 40 -23 68 -23zM206.002 259.999c0 -20 1.33203 -36.333 3.99902 -49l163 174
c-15.333 12.667 -35.666 19 -60.999 19c-34 0 -60.167 -11.667 -78.5 -35s-27.5 -57 -27.5 -101v-8z" />
    <glyph glyph-name="ugrave" unicode="&#xf9;" horiz-adv-x="623" 
d="M225 -12c-52.667 0 -95.167 16.499 -127.5 49.499s-48.5 81.167 -48.5 144.5v341h179v-312c0 -58.667 24.667 -88 74 -88c28 0 49.833 8.33301 65.5 25s23.5 41.334 23.5 74.001v301h179v-523h-179v81c-32 -62 -87.333 -93 -166 -93zM251 582.999l-105 166h180l53 -166
h-128z" />
    <glyph glyph-name="uacute" unicode="&#xfa;" horiz-adv-x="623" 
d="M241 583l53 166h180l-105 -166h-128zM225 -12c-52.667 0 -95.167 16.499 -127.5 49.499s-48.5 81.167 -48.5 144.5v341h179v-312c0 -58.667 24.667 -88 74 -88c28 0 49.833 8.33301 65.5 25s23.5 41.334 23.5 74.001v301h179v-523h-179v81c-32 -62 -87.333 -93 -166 -93z
" />
    <glyph glyph-name="ucircumflex" unicode="&#xfb;" horiz-adv-x="623" 
d="M125 585l123 163h128l118 -163h-125l-61 56l-60 -56h-123zM225 -12c-52.667 0 -95.167 16.499 -127.5 49.499s-48.5 81.167 -48.5 144.5v341h179v-312c0 -58.667 24.667 -88 74 -88c28 0 49.833 8.33301 65.5 25s23.5 41.334 23.5 74.001v301h179v-523h-179v81
c-32 -62 -87.333 -93 -166 -93z" />
    <glyph glyph-name="udieresis" unicode="&#xfc;" horiz-adv-x="623" 
d="M203 580c-23.333 0 -43.333 8.16699 -60 24.5s-25 35.833 -25 58.5c0 23.333 8.33301 43.166 25 59.499s36.667 24.5 60 24.5c24 0 44.333 -8.16699 61 -24.5s25 -36.166 25 -59.499s-8.33301 -43 -25 -59s-37 -24 -61 -24zM416 580c-24 0 -44.167 8 -60.5 24
s-24.5 35.667 -24.5 59s8.16699 43.166 24.5 59.499s36.5 24.5 60.5 24.5s44.333 -8.16699 61 -24.5s25 -36.166 25 -59.499s-8.33301 -43 -25 -59s-37 -24 -61 -24zM225 -12c-52.667 0 -95.167 16.499 -127.5 49.499s-48.5 81.167 -48.5 144.5v341h179v-312
c0 -58.667 24.667 -88 74 -88c28 0 49.833 8.33301 65.5 25s23.5 41.334 23.5 74.001v301h179v-523h-179v81c-32 -62 -87.333 -93 -166 -93z" />
    <glyph glyph-name="yacute" unicode="&#xfd;" horiz-adv-x="589" 
d="M130 -175l87 228l-209 470h194l108 -279l100 279h171l-280 -698h-171zM236 583l53 166h180l-105 -166h-128z" />
    <glyph glyph-name="thorn" unicode="&#xfe;" horiz-adv-x="643" 
d="M53 -175v928.001h179v-308c36.667 61.333 91 92 163 92c64 0 116.833 -23.667 158.5 -71s62.5 -114 62.5 -200v-8c0 -86.667 -20.833 -153.334 -62.5 -200.001s-94.834 -70 -159.501 -70c-38 0 -71.167 8.16699 -99.5 24.5s-49.166 37.833 -62.499 64.5v-252h-179z
M331 125.001c33.333 0 58.833 11.332 76.5 33.999s26.5 55.667 26.5 99v8c0 44.667 -9 78.5 -27 101.5s-43.333 34.5 -76 34.5s-58.167 -11.667 -76.5 -35s-27.5 -56.666 -27.5 -99.999v-8c0 -44 9 -77.333 27 -100s43.667 -34 77 -34z" />
    <glyph glyph-name="ydieresis" unicode="&#xff;" horiz-adv-x="589" 
d="M130 -175l87 228l-209 470h194l108 -279l100 279h171l-280 -698h-171zM198 580c-23.333 0 -43.333 8.16699 -60 24.5s-25 35.833 -25 58.5c0 23.333 8.33301 43.166 25 59.499s36.667 24.5 60 24.5c24 0 44.333 -8.16699 61 -24.5s25 -36.166 25 -59.499
s-8.33301 -43 -25 -59s-37 -24 -61 -24zM411 580c-24 0 -44.167 8 -60.5 24s-24.5 35.667 -24.5 59s8.16699 43.166 24.5 59.499s36.5 24.5 60.5 24.5s44.333 -8.16699 61 -24.5s25 -36.166 25 -59.499s-8.33301 -43 -25 -59s-37 -24 -61 -24z" />
    <glyph glyph-name="Amacron" unicode="&#x100;" horiz-adv-x="747" 
d="M13 0l229 715h265l227 -715h-217l-38 133h-237l-38 -133h-191zM210 771v107h322v-107h-322zM361 549l-79 -275h157z" />
    <glyph glyph-name="amacron" unicode="&#x101;" horiz-adv-x="578" 
d="M200 -12c-51.333 0 -93.666 12.999 -126.999 38.999s-50 65.333 -50 118c0 114 92.667 171 278 171h50v12c0 27.333 -4.83301 48 -14.5 62s-27.834 21 -54.501 21c-42 0 -65.667 -20.667 -71 -62h-168c4 61.333 28.333 108 73 140s103.667 48 177 48
c74.667 0 132.667 -16.167 174 -48.5s62 -82.166 62 -149.499v-339h-174v61c-32 -48.667 -83.667 -73 -155 -73zM262 108.999c26 0 47.333 6.83203 64 20.499s25 31.5 25 53.5v32h-47c-36.667 0 -63.167 -4.16699 -79.5 -12.5s-24.5 -23.166 -24.5 -44.499
c0 -32.667 20.667 -49 62 -49zM137 611.998v100h307v-100h-307z" />
    <glyph glyph-name="Abreve" unicode="&#x102;" horiz-adv-x="747" 
d="M13 0l229 715h265l227 -715h-217l-38 133h-237l-38 -133h-191zM370 752c-48.667 0 -87.499 13.499 -116.499 40.499s-45.167 64.5 -48.5 112.5h116c3.33301 -30.667 19.666 -46 48.999 -46c30 0 47.333 15.333 52 46h115c-4 -47.333 -21 -84.666 -51 -111.999
s-68.667 -41 -116 -41zM361.001 548.999l-79 -275h157z" />
    <glyph glyph-name="abreve" unicode="&#x103;" horiz-adv-x="578" 
d="M200 -12c-51.333 0 -93.666 12.999 -126.999 38.999s-50 65.333 -50 118c0 114 92.667 171 278 171h50v12c0 27.333 -4.83301 48 -14.5 62s-27.834 21 -54.501 21c-42 0 -65.667 -20.667 -71 -62h-168c4 61.333 28.333 108 73 140s103.667 48 177 48
c74.667 0 132.667 -16.167 174 -48.5s62 -82.166 62 -149.499v-339h-174v61c-32 -48.667 -83.667 -73 -155 -73zM262 108.999c26 0 47.333 6.83203 64 20.499s25 31.5 25 53.5v32h-47c-36.667 0 -63.167 -4.16699 -79.5 -12.5s-24.5 -23.166 -24.5 -44.499
c0 -32.667 20.667 -49 62 -49zM290 586.998c-48 0 -86.499 13.833 -115.499 41.5s-44.833 66.5 -47.5 116.5h111c3.33301 -32 20.666 -48 51.999 -48c32.667 0 50.667 16 54 48h111c-2.66699 -50 -19 -88.833 -49 -116.5s-68.667 -41.5 -116 -41.5z" />
    <glyph glyph-name="Aogonek" unicode="&#x104;" horiz-adv-x="747" 
d="M636 -182c-38 0 -68 7.33301 -90 22s-33 34.334 -33 59.001c0 39.333 28.333 73 85 101h-81l-38 133h-237l-38 -133h-191l229 715h265l222 -701c-40.667 -24.667 -61 -49.334 -61 -74.001c0 -17.333 9.66699 -26 29 -26c10 0 20 1.66699 30 5v-85
c-24 -10.667 -54.333 -16 -91 -16zM361 549l-79 -275h157z" />
    <glyph glyph-name="aogonek" unicode="&#x105;" horiz-adv-x="578" 
d="M443 -182c-36 0 -64.333 7.16699 -85 21.5s-31 33.833 -31 58.5c0 41.333 28.667 75.333 86 102h-58v61c-32 -48.667 -83.667 -73 -155 -73c-51.333 0 -93.666 13 -126.999 39s-50 65.333 -50 118c0 114 92.667 171 278 171h50v12c0 27.333 -4.83301 48 -14.5 62
s-27.834 21 -54.501 21c-42 0 -65.667 -20.667 -71 -62h-168c4 61.333 28.333 108 73 140s103.667 48 177 48c74.667 0 132.667 -16.167 174 -48.5s62 -82.166 62 -149.499v-328c-37.333 -26.667 -56 -51.334 -56 -74.001c0 -18.667 10 -28 30 -28c10 0 20 1.66699 30 5v-80
c-24 -10.667 -54 -16 -90 -16zM262 109c26 0 47.333 6.83203 64 20.499s25 31.5 25 53.5v32h-47c-36.667 0 -63.167 -4.16699 -79.5 -12.5s-24.5 -23.166 -24.5 -44.499c0 -32.667 20.667 -49 62 -49z" />
    <glyph glyph-name="Cacute" unicode="&#x106;" horiz-adv-x="759" 
d="M405 -12c-122 0 -214.669 32.666 -278.002 97.999s-95 154.333 -95 267v8c0 108.667 34.333 196.667 103 264s156 101 262 101c96 0 173.333 -22.833 232 -68.5s92 -114.5 100 -206.5h-211c-8 75.333 -48 113 -120 113c-46.667 0 -83.334 -17.667 -110.001 -53
s-40 -85 -40 -149v-8c0 -64.667 13.333 -114.5 40 -149.5s64.334 -52.5 113.001 -52.5c36.667 0 66.834 9.83301 90.501 29.5s37.834 48.834 42.501 87.501h204c-6.66699 -90.667 -40 -160.167 -100 -208.5s-137.667 -72.5 -233 -72.5zM318.998 758.999l51 146h187
l-103 -146h-135z" />
    <glyph glyph-name="cacute" unicode="&#x107;" horiz-adv-x="583" 
d="M230 583l53 166h180l-105 -166h-128zM300 -12c-81.333 0 -147.498 23.168 -198.498 69.501s-76.5 112.166 -76.5 197.499v8c0 84.667 26.5 151.5 79.5 200.5s119.5 73.5 199.5 73.5c45.333 0 85.833 -6.5 121.5 -19.5s66.167 -36.167 91.5 -69.5
s39.666 -75.333 42.999 -126h-168c-8 50.667 -36 76 -84 76c-32 0 -56.667 -11.333 -74 -34s-26 -55.667 -26 -99v-8c0 -92 34.333 -138 103 -138c25.333 0 46.166 7.5 62.499 22.5s25.833 36.5 28.5 64.5h161c-2.66699 -67.333 -26.5 -120.5 -71.5 -159.5
s-108.833 -58.5 -191.5 -58.5z" />
    <glyph glyph-name="Ccircumflex" unicode="&#x108;" horiz-adv-x="759" 
d="M208 759l114 146h150l110 -146h-130l-59 49l-58 -49h-127zM405 -12c-122 0 -214.669 32.666 -278.002 97.999s-95 154.333 -95 267v8c0 108.667 34.333 196.667 103 264s156 101 262 101c96 0 173.333 -22.833 232 -68.5s92 -114.5 100 -206.5h-211
c-8 75.333 -48 113 -120 113c-46.667 0 -83.334 -17.667 -110.001 -53s-40 -85 -40 -149v-8c0 -64.667 13.333 -114.5 40 -149.5s64.334 -52.5 113.001 -52.5c36.667 0 66.834 9.83301 90.501 29.5s37.834 48.834 42.501 87.501h204
c-6.66699 -90.667 -40 -160.167 -100 -208.5s-137.667 -72.5 -233 -72.5z" />
    <glyph glyph-name="ccircumflex" unicode="&#x109;" horiz-adv-x="583" 
d="M114 585l123 163h128l118 -163h-125l-61 56l-60 -56h-123zM300 -12c-81.333 0 -147.498 23.168 -198.498 69.501s-76.5 112.166 -76.5 197.499v8c0 84.667 26.5 151.5 79.5 200.5s119.5 73.5 199.5 73.5c45.333 0 85.833 -6.5 121.5 -19.5s66.167 -36.167 91.5 -69.5
s39.666 -75.333 42.999 -126h-168c-8 50.667 -36 76 -84 76c-32 0 -56.667 -11.333 -74 -34s-26 -55.667 -26 -99v-8c0 -92 34.333 -138 103 -138c25.333 0 46.166 7.5 62.499 22.5s25.833 36.5 28.5 64.5h161c-2.66699 -67.333 -26.5 -120.5 -71.5 -159.5
s-108.833 -58.5 -191.5 -58.5z" />
    <glyph glyph-name="Cdotaccent" unicode="&#x10a;" horiz-adv-x="759" 
d="M405 -12c-122 0 -214.669 32.666 -278.002 97.999s-95 154.333 -95 267v8c0 108.667 34.333 196.667 103 264s156 101 262 101c96 0 173.333 -22.833 232 -68.5s92 -114.5 100 -206.5h-211c-8 75.333 -48 113 -120 113c-46.667 0 -83.334 -17.667 -110.001 -53
s-40 -85 -40 -149v-8c0 -64.667 13.333 -114.5 40 -149.5s64.334 -52.5 113.001 -52.5c36.667 0 66.834 9.83301 90.501 29.5s37.834 48.834 42.501 87.501h204c-6.66699 -90.667 -40 -160.167 -100 -208.5s-137.667 -72.5 -233 -72.5zM393.998 756.999
c-27.333 0 -50 8.5 -68 25.5s-27 38.5 -27 64.5c0 25.333 9 46.5 27 63.5s40.667 25.5 68 25.5s50 -8.5 68 -25.5s27 -38.167 27 -63.5c0 -26 -9 -47.5 -27 -64.5s-40.667 -25.5 -68 -25.5z" />
    <glyph glyph-name="cdotaccent" unicode="&#x10b;" horiz-adv-x="583" 
d="M300 -12c-81.333 0 -147.498 23.168 -198.498 69.501s-76.5 112.166 -76.5 197.499v8c0 84.667 26.5 151.5 79.5 200.5s119.5 73.5 199.5 73.5c45.333 0 85.833 -6.5 121.5 -19.5s66.167 -36.167 91.5 -69.5s39.666 -75.333 42.999 -126h-168c-8 50.667 -36 76 -84 76
c-32 0 -56.667 -11.333 -74 -34s-26 -55.667 -26 -99v-8c0 -92 34.333 -138 103 -138c25.333 0 46.166 7.5 62.499 22.5s25.833 36.5 28.5 64.5h161c-2.66699 -67.333 -26.5 -120.5 -71.5 -159.5s-108.833 -58.5 -191.5 -58.5zM302.002 579.001
c-27.333 0 -50.166 8.5 -68.499 25.5s-27.5 38.5 -27.5 64.5c0 25.333 9.16699 46.5 27.5 63.5s41.166 25.5 68.499 25.5s50 -8.5 68 -25.5s27 -38.167 27 -63.5c0 -26 -9 -47.5 -27 -64.5s-40.667 -25.5 -68 -25.5z" />
    <glyph glyph-name="Ccaron" unicode="&#x10c;" horiz-adv-x="759" 
d="M317 759l-110 146h130l58 -49l59 49h127l-114 -146h-150zM405 -12c-122 0 -214.669 32.666 -278.002 97.999s-95 154.333 -95 267v8c0 108.667 34.333 196.667 103 264s156 101 262 101c96 0 173.333 -22.833 232 -68.5s92 -114.5 100 -206.5h-211
c-8 75.333 -48 113 -120 113c-46.667 0 -83.334 -17.667 -110.001 -53s-40 -85 -40 -149v-8c0 -64.667 13.333 -114.5 40 -149.5s64.334 -52.5 113.001 -52.5c36.667 0 66.834 9.83301 90.501 29.5s37.834 48.834 42.501 87.501h204
c-6.66699 -90.667 -40 -160.167 -100 -208.5s-137.667 -72.5 -233 -72.5z" />
    <glyph glyph-name="ccaron" unicode="&#x10d;" horiz-adv-x="583" 
d="M233 585l-119 163h125l61 -56l61 56h122l-123 -163h-127zM300 -12c-81.333 0 -147.498 23.168 -198.498 69.501s-76.5 112.166 -76.5 197.499v8c0 84.667 26.5 151.5 79.5 200.5s119.5 73.5 199.5 73.5c45.333 0 85.833 -6.5 121.5 -19.5s66.167 -36.167 91.5 -69.5
s39.666 -75.333 42.999 -126h-168c-8 50.667 -36 76 -84 76c-32 0 -56.667 -11.333 -74 -34s-26 -55.667 -26 -99v-8c0 -92 34.333 -138 103 -138c25.333 0 46.166 7.5 62.499 22.5s25.833 36.5 28.5 64.5h161c-2.66699 -67.333 -26.5 -120.5 -71.5 -159.5
s-108.833 -58.5 -191.5 -58.5z" />
    <glyph glyph-name="Dcaron" unicode="&#x10e;" horiz-adv-x="743" 
d="M259 759l-110 146h130l58 -49l59 49h127l-114 -146h-150zM275 158h47c60.667 0 105.167 16.167 133.5 48.5s42.5 81.833 42.5 148.5v8c0 68 -14.167 117.333 -42.5 148s-73.5 46 -135.5 46h-45v-399zM69 0l0.000976562 715h260c126 0 221.333 -30.167 286 -90.5
s97 -146.5 97 -258.5v-8c0 -112.667 -32.833 -200.5 -98.5 -263.5s-160.834 -94.5 -285.501 -94.5h-259z" />
    <glyph glyph-name="dcaron" unicode="&#x10f;" horiz-adv-x="642" 
d="M625 579l9 174h133l-49 -174h-93zM247 -12c-64 0 -116.668 23 -158.001 69s-62 112.333 -62 199v8c0 86 20.833 153 62.5 201s94.834 72 159.501 72c74 0 127.667 -29.333 161 -88v304h179v-753h-179v85c-14 -28.667 -35.167 -52 -63.5 -70s-61.5 -27 -99.5 -27z
M309.999 125c33.333 0 59.167 11.333 77.5 34s27.5 56 27.5 100v8c0 44 -8.83301 77.5 -26.5 100.5s-43.167 34.5 -76.5 34.5c-68.667 0 -103 -45.333 -103 -136v-8c0 -43.333 9 -76.333 27 -99s42.667 -34 74 -34z" />
    <glyph glyph-name="Dcroat" unicode="&#x110;" horiz-adv-x="774" 
d="M29 290v138h59v287h259c126 0 221.333 -30.167 286 -90.5s97 -146.5 97 -258.5v-8c0 -113.333 -32.667 -201.333 -98 -264s-160.333 -94 -285 -94h-259v290h-59zM289 158h52c60 0 104.167 16.167 132.5 48.5s42.5 81.833 42.5 148.5v8c0 68 -14 117.333 -42 148
s-73 46 -135 46h-50v-129h120v-138h-120v-132z" />
    <glyph glyph-name="dcroat" unicode="&#x111;" horiz-adv-x="642" 
d="M255 587l-0.000976562 96h155v70h179v-70h57v-96h-57v-587h-179v85c-14 -28.667 -35.167 -52 -63.5 -70s-61.5 -27 -99.5 -27c-64 0 -116.667 23 -158 69s-62 112.333 -62 199v8c0 86 20.833 153 62.5 201s94.834 72 159.501 72c74 0 127.667 -29.333 161 -88v138h-155z
M309.999 125c33.333 0 59.167 11.333 77.5 34s27.5 56 27.5 100v8c0 44 -8.83301 77.5 -26.5 100.5s-43.167 34.5 -76.5 34.5c-68.667 0 -103 -45.333 -103 -136v-8c0 -43.333 9 -76.333 27 -99s42.667 -34 74 -34z" />
    <glyph glyph-name="Emacron" unicode="&#x112;" horiz-adv-x="612" 
d="M69 0v715h494v-158h-290v-123h231v-146h-231v-130h306v-158h-510zM162 771v107h322v-107h-322z" />
    <glyph glyph-name="emacron" unicode="&#x113;" horiz-adv-x="598" 
d="M309 -12c-84 0 -152.333 23.667 -205 71s-79 112.666 -79 195.999v8c0 82 27 148.167 81 198.5s121.333 75.5 202 75.5c76.667 0 140.167 -22.667 190.5 -68s75.5 -112.666 75.5 -201.999v-47h-368c2.66699 -34.667 13.5 -61.5 32.5 -80.5s44.5 -28.5 76.5 -28.5
c52.667 0 83 20.667 91 62h168c-8 -59.333 -34.5 -105 -79.5 -137s-106.833 -48 -185.5 -48zM208 321h191.999c-3.33301 65.333 -34 98 -92 98c-27.333 0 -49.666 -8.5 -66.999 -25.5s-28.333 -41.167 -33 -72.5zM148.999 612v100h307v-100h-307z" />
    <glyph glyph-name="Ebreve" unicode="&#x114;" horiz-adv-x="612" 
d="M69 0v715h494v-158h-290v-123h231v-146h-231v-130h306v-158h-510zM322 752c-48.667 0 -87.499 13.499 -116.499 40.499s-45.167 64.5 -48.5 112.5h116c3.33301 -30.667 19.666 -46 48.999 -46c30 0 47.333 15.333 52 46h115c-4 -47.333 -21 -84.666 -51 -111.999
s-68.667 -41 -116 -41z" />
    <glyph glyph-name="ebreve" unicode="&#x115;" horiz-adv-x="598" 
d="M309 -12c-84 0 -152.333 23.667 -205 71s-79 112.666 -79 195.999v8c0 82 27 148.167 81 198.5s121.333 75.5 202 75.5c76.667 0 140.167 -22.667 190.5 -68s75.5 -112.666 75.5 -201.999v-47h-368c2.66699 -34.667 13.5 -61.5 32.5 -80.5s44.5 -28.5 76.5 -28.5
c52.667 0 83 20.667 91 62h168c-8 -59.333 -34.5 -105 -79.5 -137s-106.833 -48 -185.5 -48zM208 321h191.999c-3.33301 65.333 -34 98 -92 98c-27.333 0 -49.666 -8.5 -66.999 -25.5s-28.333 -41.167 -33 -72.5zM296.999 587c-48 0 -86.499 13.833 -115.499 41.5
s-44.833 66.5 -47.5 116.5h111c3.33301 -32 20.666 -48 51.999 -48c32.667 0 50.667 16 54 48h111c-2.66699 -50 -19 -88.833 -49 -116.5s-68.667 -41.5 -116 -41.5z" />
    <glyph glyph-name="Edotaccent" unicode="&#x116;" horiz-adv-x="612" 
d="M324 757c-27.333 0 -50 8.5 -68 25.5s-27 38.5 -27 64.5c0 25.333 9 46.5 27 63.5s40.667 25.5 68 25.5s50 -8.5 68 -25.5s27 -38.167 27 -63.5c0 -26 -9 -47.5 -27 -64.5s-40.667 -25.5 -68 -25.5zM69 0v715h494v-158h-290v-123h231v-146h-231v-130h306v-158h-510z" />
    <glyph glyph-name="edotaccent" unicode="&#x117;" horiz-adv-x="598" 
d="M309 -12c-84 0 -152.333 23.667 -205 71s-79 112.666 -79 195.999v8c0 82 27 148.167 81 198.5s121.333 75.5 202 75.5c76.667 0 140.167 -22.667 190.5 -68s75.5 -112.666 75.5 -201.999v-47h-368c2.66699 -34.667 13.5 -61.5 32.5 -80.5s44.5 -28.5 76.5 -28.5
c52.667 0 83 20.667 91 62h168c-8 -59.333 -34.5 -105 -79.5 -137s-106.833 -48 -185.5 -48zM208 321h191.999c-3.33301 65.333 -34 98 -92 98c-27.333 0 -49.666 -8.5 -66.999 -25.5s-28.333 -41.167 -33 -72.5zM303.999 579c-27.333 0 -50.166 8.5 -68.499 25.5
s-27.5 38.5 -27.5 64.5c0 25.333 9.16699 46.5 27.5 63.5s41.166 25.5 68.499 25.5s50 -8.5 68 -25.5s27 -38.167 27 -63.5c0 -26 -9 -47.5 -27 -64.5s-40.667 -25.5 -68 -25.5z" />
    <glyph glyph-name="Eogonek" unicode="&#x118;" horiz-adv-x="612" 
d="M467 -182c-37.333 0 -67 7.33105 -89 21.998s-33 34.334 -33 59.001c0 38.667 28.667 72.334 86 101.001h-362v715h494v-158h-290v-123h231v-146h-231v-130h306v-158h-38c-27.333 -22 -41 -42 -41 -60c0 -17.333 10 -26 30 -26c10.667 0 20.334 1.66699 29.001 5v-85
c-22.667 -10.667 -53.334 -16 -92.001 -16z" />
    <glyph glyph-name="eogonek" unicode="&#x119;" horiz-adv-x="598" 
d="M405 -182c-36 0 -64.666 7 -85.999 21s-32 33.333 -32 58c0 32 27.333 63.667 82 95c-15.333 -2.66699 -35.333 -4 -60 -4c-84 0 -152.333 23.667 -205 71s-79 112.666 -79 195.999v8c0 82 27 148.167 81 198.5s121.333 75.5 202 75.5
c76.667 0 140.167 -22.667 190.5 -68s75.5 -112.666 75.5 -201.999v-47h-368c2.66699 -34.667 13.5 -61.5 32.5 -80.5s44.5 -28.5 76.5 -28.5c52.667 0 83 20.667 91 62h168c-6.66699 -49.333 -30.334 -94.333 -71.001 -135c-25.333 -24.667 -43.5 -44.167 -54.5 -58.5
s-16.5 -28.5 -16.5 -42.5c0 -18.667 10.333 -28 31 -28c10 0 20 1.66699 30 5v-80c-24 -10.667 -53.333 -16 -88 -16zM208.001 321h191.999c-3.33301 65.333 -34 98 -92 98c-27.333 0 -49.666 -8.5 -66.999 -25.5s-28.333 -41.167 -33 -72.5z" />
    <glyph glyph-name="Ecaron" unicode="&#x11a;" horiz-adv-x="612" 
d="M247 759l-110 146h130l58 -49l59 49h127l-114 -146h-150zM69 0v715h494v-158h-290v-123h231v-146h-231v-130h306v-158h-510z" />
    <glyph glyph-name="ecaron" unicode="&#x11b;" horiz-adv-x="598" 
d="M237 585l-119 163h125l61 -56l61 56h122l-123 -163h-127zM309 -12c-84 0 -152.333 23.667 -205 71s-79 112.666 -79 195.999v8c0 82 27 148.167 81 198.5s121.333 75.5 202 75.5c76.667 0 140.167 -22.667 190.5 -68s75.5 -112.666 75.5 -201.999v-47h-368
c2.66699 -34.667 13.5 -61.5 32.5 -80.5s44.5 -28.5 76.5 -28.5c52.667 0 83 20.667 91 62h168c-8 -59.333 -34.5 -105 -79.5 -137s-106.833 -48 -185.5 -48zM208 321h191.999c-3.33301 65.333 -34 98 -92 98c-27.333 0 -49.666 -8.5 -66.999 -25.5
s-28.333 -41.167 -33 -72.5z" />
    <glyph glyph-name="Gcircumflex" unicode="&#x11c;" horiz-adv-x="787" 
d="M406 -12c-118.667 0 -210.833 33.335 -276.5 100.002s-98.5 155 -98.5 265v8c0 108 35.333 195.833 106 263.5s160.334 101.5 269.001 101.5c91.333 0 168 -21.833 230 -65.5s96.333 -109.5 103 -197.5h-203c-10 68 -53 102 -129 102
c-50.667 0 -90.334 -18.333 -119.001 -55s-43 -87.334 -43 -152.001v-8c0 -62.667 13.167 -112.667 39.5 -150s68.833 -56 127.5 -56c46.667 0 81.5 10.167 104.5 30.5s35.5 46.166 37.5 77.499h-134v143h336v-88c0 -94.667 -30.333 -171.5 -91 -230.5
s-147 -88.5 -259 -88.5zM216.001 759.002l114 146h150l110 -146h-130l-59 49l-58 -49h-127z" />
    <glyph glyph-name="gcircumflex" unicode="&#x11d;" horiz-adv-x="641" 
d="M120 585l123 163h128l118 -163h-125l-61 56l-60 -56h-123zM298 -194c-167.333 0 -258.667 64.667 -274 194h178c9.33301 -45.333 41.333 -68 96 -68c74 0 111 36.667 111 110v80c-14.667 -27.333 -36.167 -50.166 -64.5 -68.499s-60.833 -27.5 -97.5 -27.5
c-63.333 0 -116.166 22.333 -158.499 67s-63.5 106 -63.5 184v8c0 75.333 21.167 136.166 63.5 182.499s95.166 69.5 158.499 69.5c74.667 0 128.667 -29.333 162 -88v74h179v-479c0 -78 -24.833 -137.167 -74.5 -177.5s-121.5 -60.5 -215.5 -60.5zM309.999 158
c32 0 57.333 10.832 76 32.499s28 50.834 28 87.501v7c0 36.667 -9 65.5 -27 86.5s-43.333 31.5 -76 31.5s-58 -10.667 -76 -32s-27 -50.333 -27 -87v-8c0 -36 9 -64.667 27 -86s43 -32 75 -32z" />
    <glyph glyph-name="Gbreve" unicode="&#x11e;" horiz-adv-x="787" 
d="M406 -12c-118.667 0 -210.833 33.335 -276.5 100.002s-98.5 155 -98.5 265v8c0 108 35.333 195.833 106 263.5s160.334 101.5 269.001 101.5c91.333 0 168 -21.833 230 -65.5s96.333 -109.5 103 -197.5h-203c-10 68 -53 102 -129 102
c-50.667 0 -90.334 -18.333 -119.001 -55s-43 -87.334 -43 -152.001v-8c0 -62.667 13.167 -112.667 39.5 -150s68.833 -56 127.5 -56c46.667 0 81.5 10.167 104.5 30.5s35.5 46.166 37.5 77.499h-134v143h336v-88c0 -94.667 -30.333 -171.5 -91 -230.5
s-147 -88.5 -259 -88.5zM402.001 752.002c-48.667 0 -87.499 13.499 -116.499 40.499s-45.167 64.5 -48.5 112.5h116c3.33301 -30.667 19.666 -46 48.999 -46c30 0 47.333 15.333 52 46h115c-4 -47.333 -21 -84.666 -51 -111.999s-68.667 -41 -116 -41z" />
    <glyph glyph-name="gbreve" unicode="&#x11f;" horiz-adv-x="641" 
d="M298 -194c-167.333 0 -258.667 64.667 -274 194h178c9.33301 -45.333 41.333 -68 96 -68c74 0 111 36.667 111 110v80c-14.667 -27.333 -36.167 -50.166 -64.5 -68.499s-60.833 -27.5 -97.5 -27.5c-63.333 0 -116.166 22.333 -158.499 67s-63.5 106 -63.5 184v8
c0 75.333 21.167 136.166 63.5 182.499s95.166 69.5 158.499 69.5c74.667 0 128.667 -29.333 162 -88v74h179v-479c0 -78 -24.833 -137.167 -74.5 -177.5s-121.5 -60.5 -215.5 -60.5zM309.999 158c32 0 57.333 10.832 76 32.499s28 50.834 28 87.501v7
c0 36.667 -9 65.5 -27 86.5s-43.333 31.5 -76 31.5s-58 -10.667 -76 -32s-27 -50.333 -27 -87v-8c0 -36 9 -64.667 27 -86s43 -32 75 -32zM303.999 586.999c-48 0 -86.499 13.833 -115.499 41.5s-44.833 66.5 -47.5 116.5h111c3.33301 -32 20.666 -48 51.999 -48
c32.667 0 50.667 16 54 48h111c-2.66699 -50 -19 -88.833 -49 -116.5s-68.667 -41.5 -116 -41.5z" />
    <glyph glyph-name="Gdotaccent" unicode="&#x120;" horiz-adv-x="787" 
d="M406 -12c-118.667 0 -210.833 33.335 -276.5 100.002s-98.5 155 -98.5 265v8c0 108 35.333 195.833 106 263.5s160.334 101.5 269.001 101.5c91.333 0 168 -21.833 230 -65.5s96.333 -109.5 103 -197.5h-203c-10 68 -53 102 -129 102
c-50.667 0 -90.334 -18.333 -119.001 -55s-43 -87.334 -43 -152.001v-8c0 -62.667 13.167 -112.667 39.5 -150s68.833 -56 127.5 -56c46.667 0 81.5 10.167 104.5 30.5s35.5 46.166 37.5 77.499h-134v143h336v-88c0 -94.667 -30.333 -171.5 -91 -230.5
s-147 -88.5 -259 -88.5zM404.001 757.002c-27.333 0 -50 8.5 -68 25.5s-27 38.5 -27 64.5c0 25.333 9 46.5 27 63.5s40.667 25.5 68 25.5s50 -8.5 68 -25.5s27 -38.167 27 -63.5c0 -26 -9 -47.5 -27 -64.5s-40.667 -25.5 -68 -25.5z" />
    <glyph glyph-name="gdotaccent" unicode="&#x121;" horiz-adv-x="641" 
d="M298 -194c-167.333 0 -258.667 64.667 -274 194h178c9.33301 -45.333 41.333 -68 96 -68c74 0 111 36.667 111 110v80c-14.667 -27.333 -36.167 -50.166 -64.5 -68.499s-60.833 -27.5 -97.5 -27.5c-63.333 0 -116.166 22.333 -158.499 67s-63.5 106 -63.5 184v8
c0 75.333 21.167 136.166 63.5 182.499s95.166 69.5 158.499 69.5c74.667 0 128.667 -29.333 162 -88v74h179v-479c0 -78 -24.833 -137.167 -74.5 -177.5s-121.5 -60.5 -215.5 -60.5zM309.999 158c32 0 57.333 10.832 76 32.499s28 50.834 28 87.501v7
c0 36.667 -9 65.5 -27 86.5s-43.333 31.5 -76 31.5s-58 -10.667 -76 -32s-27 -50.333 -27 -87v-8c0 -36 9 -64.667 27 -86s43 -32 75 -32zM304.999 578.999c-27.333 0 -50.166 8.5 -68.499 25.5s-27.5 38.5 -27.5 64.5c0 25.333 9.16699 46.5 27.5 63.5
s41.166 25.5 68.499 25.5s50 -8.5 68 -25.5s27 -38.167 27 -63.5c0 -26 -9 -47.5 -27 -64.5s-40.667 -25.5 -68 -25.5z" />
    <glyph glyph-name="Gcommaaccent" unicode="&#x122;" horiz-adv-x="787" 
d="M406 -12c-118.667 0 -210.833 33.335 -276.5 100.002s-98.5 155 -98.5 265v8c0 108 35.333 195.833 106 263.5s160.334 101.5 269.001 101.5c91.333 0 168 -21.833 230 -65.5s96.333 -109.5 103 -197.5h-203c-10 68 -53 102 -129 102
c-50.667 0 -90.334 -18.333 -119.001 -55s-43 -87.334 -43 -152.001v-8c0 -62.667 13.167 -112.667 39.5 -150s68.833 -56 127.5 -56c46.667 0 81.5 10.167 104.5 30.5s35.5 46.166 37.5 77.499h-134v143h336v-88c0 -94.667 -30.333 -171.5 -91 -230.5
s-147 -88.5 -259 -88.5zM388.001 -231.998l-101 27l42 177l158 -19z" />
    <glyph glyph-name="gcommaaccent" unicode="&#x123;" horiz-adv-x="641" 
d="M388 566l-158 19l99 185l101 -27zM298 -194c-167.333 0 -258.667 64.667 -274 194h178c9.33301 -45.333 41.333 -68 96 -68c74 0 111 36.667 111 110v80c-14.667 -27.333 -36.167 -50.166 -64.5 -68.499s-60.833 -27.5 -97.5 -27.5
c-63.333 0 -116.166 22.333 -158.499 67s-63.5 106 -63.5 184v8c0 75.333 21.167 136.166 63.5 182.499s95.166 69.5 158.499 69.5c74.667 0 128.667 -29.333 162 -88v74h179v-479c0 -78 -24.833 -137.167 -74.5 -177.5s-121.5 -60.5 -215.5 -60.5zM309.999 158
c32 0 57.333 10.832 76 32.499s28 50.834 28 87.501v7c0 36.667 -9 65.5 -27 86.5s-43.333 31.5 -76 31.5s-58 -10.667 -76 -32s-27 -50.333 -27 -87v-8c0 -36 9 -64.667 27 -86s43 -32 75 -32z" />
    <glyph glyph-name="Hcircumflex" unicode="&#x124;" horiz-adv-x="784" 
d="M69 0v715h206v-273h235v273h205v-715h-205v282h-235v-282h-206zM205 759l114 146h150l110 -146h-130l-59 49l-58 -49h-127z" />
    <glyph glyph-name="hcircumflex" unicode="&#x125;" horiz-adv-x="624" 
d="M53 0l-0.000976562 753.001h179v-314c15.333 29.333 37.5 53 66.5 71s64.167 27 105.5 27c52.667 0 94.334 -16.667 125.001 -50s46 -82.333 46 -147v-340h-179v304c0 58.667 -25 88 -75 88c-27.333 0 -49 -8.33301 -65 -25s-24 -41.334 -24 -74.001v-293h-179z" />
    <glyph glyph-name="Hbar" unicode="&#x126;" horiz-adv-x="784" 
d="M9 521v96h60v98h206v-98h235v98h205v-98h60v-96h-60v-521h-205v282h-235v-282h-206v521h-60zM275 442h235v79h-235v-79z" />
    <glyph glyph-name="hbar" unicode="&#x127;" horiz-adv-x="624" 
d="M-4 587l-0.000976562 96.001h57v70h179v-70h155v-96h-155v-148c15.333 29.333 37.5 53 66.5 71s64.167 27 105.5 27c52.667 0 94.334 -16.667 125.001 -50s46 -82.333 46 -147v-340h-179v304c0 58.667 -25 88 -75 88c-27.333 0 -49 -8.33301 -65 -25
s-24 -41.334 -24 -74.001v-293h-179v587h-57z" />
    <glyph glyph-name="Itilde" unicode="&#x128;" horiz-adv-x="352" 
d="M73 0v715h207v-715h-207zM242 758c-21.333 0 -44.6699 5.66699 -70.0029 17s-42 17 -50 17s-14.833 -3 -20.5 -9s-9.16699 -14 -10.5 -24h-102c3.33301 50 16.333 88 39 114s50.334 39 83.001 39c20 0 42.833 -5.5 68.5 -16.5s43.167 -16.5 52.5 -16.5
c16.667 0 27.334 10.667 32.001 32h101c-3.33301 -50 -16.666 -88 -39.999 -114s-51 -39 -83 -39z" />
    <glyph glyph-name="itilde" unicode="&#x129;" horiz-adv-x="295" 
d="M58 0v523h179v-523h-179zM212 587c-20.667 0 -43.335 5.50098 -68.002 16.501s-41 16.5 -49 16.5c-17.333 0 -27.666 -10.667 -30.999 -32h-97c3.33301 51.333 15.333 90.166 36 116.499s47 39.5 79 39.5c20 0 42.5 -5.66699 67.5 -17s42.167 -17 51.5 -17
c16.667 0 27.334 10.667 32.001 32h97c-4 -50 -16.833 -88.333 -38.5 -115s-48.167 -40 -79.5 -40z" />
    <glyph glyph-name="Imacron" unicode="&#x12a;" horiz-adv-x="352" 
d="M73 0v715h207v-715h-207zM15 771v107h322v-107h-322z" />
    <glyph glyph-name="imacron" unicode="&#x12b;" horiz-adv-x="295" 
d="M25 612v100h245v-100h-245zM58 0v523h179v-523h-179z" />
    <glyph glyph-name="Ibreve" unicode="&#x12c;" horiz-adv-x="352" 
d="M73 0v715h207v-715h-207zM176 752c-48.667 0 -87.499 13.499 -116.499 40.499s-45.167 64.5 -48.5 112.5h116c3.33301 -30.667 19.666 -46 48.999 -46c30 0 47.333 15.333 52 46h115c-4 -47.333 -21 -84.666 -51 -111.999s-68.667 -41 -116 -41z" />
    <glyph glyph-name="ibreve" unicode="&#x12d;" horiz-adv-x="295" 
d="M58 0v523h179v-523h-179zM147 587c-48 0 -86.499 13.833 -115.499 41.5s-44.833 66.5 -47.5 116.5h111c3.33301 -32 20.666 -48 51.999 -48c32.667 0 50.667 16 54 48h111c-2.66699 -50 -19 -88.833 -49 -116.5s-68.667 -41.5 -116 -41.5z" />
    <glyph glyph-name="Iogonek" unicode="&#x12e;" horiz-adv-x="352" 
d="M193 -182c-38 0 -68.001 7.33203 -90.001 21.999s-33 34.334 -33 59.001c0 38 28.333 71.667 85 101h-82v715h207v-703c-36.667 -25.333 -55 -49.333 -55 -72c0 -17.333 10 -26 30 -26c10.667 0 20.334 1.66699 29.001 5v-85c-24 -10.667 -54.333 -16 -91 -16z" />
    <glyph glyph-name="iogonek" unicode="&#x12f;" horiz-adv-x="295" 
d="M154 -182c-35.333 0 -63.5 7.33105 -84.5 21.998s-31.5 34.334 -31.5 59.001c0 40.667 28.667 74.334 86 101.001h-66v523h179v-514c-36 -26 -54 -50 -54 -72c0 -18.667 10.333 -28 31 -28c10 0 20 1.66699 30 5v-80c-24 -10.667 -54 -16 -90 -16zM147 572.998
c-28 0 -51.333 8.66699 -70 26s-28 39.333 -28 66s9.33301 48.834 28 66.501s42 26.5 70 26.5s51.5 -8.83301 70.5 -26.5s28.5 -39.834 28.5 -66.501s-9.5 -48.667 -28.5 -66s-42.5 -26 -70.5 -26z" />
    <glyph glyph-name="Idotaccent" unicode="&#x130;" horiz-adv-x="352" 
d="M73 0v715h207v-715h-207zM177 757c-27.333 0 -50 8.5 -68 25.5s-27 38.5 -27 64.5c0 25.333 9 46.5 27 63.5s40.667 25.5 68 25.5s50 -8.5 68 -25.5s27 -38.167 27 -63.5c0 -26 -9 -47.5 -27 -64.5s-40.667 -25.5 -68 -25.5z" />
    <glyph glyph-name="dotlessi" unicode="&#x131;" horiz-adv-x="295" 
d="M58 0v523h179v-523h-179z" />
    <glyph glyph-name="IJ" unicode="&#x132;" horiz-adv-x="804" 
d="M73 0v715h207v-715h-207zM488 -9c-53.333 0 -96.667 8 -130 24v153c28 -9.33301 57 -14 87 -14c62 0 93 33 93 99v462h206v-464c0 -86 -21.667 -150.833 -65 -194.5s-107 -65.5 -191 -65.5z" />
    <glyph glyph-name="ij" unicode="&#x133;" horiz-adv-x="591" 
d="M58 0v523h179v-523h-179zM147 573c-28 0 -51.333 8.66699 -70 26s-28 39.333 -28 66s9.33301 48.834 28 66.501s42 26.5 70 26.5s51.5 -8.83301 70.5 -26.5s28.5 -39.834 28.5 -66.501s-9.5 -48.667 -28.5 -66s-42.5 -26 -70.5 -26zM289 -184v130
c22 1.33301 38.167 7 48.5 17s15.5 25 15.5 45v515h178v-519c0 -61.333 -18 -108 -54 -140s-98.667 -48 -188 -48zM442 573c-28 0 -51.333 8.66699 -70 26s-28 39.333 -28 66s9.33301 48.834 28 66.501s42 26.5 70 26.5s51.5 -8.83301 70.5 -26.5s28.5 -39.834 28.5 -66.501
s-9.5 -48.667 -28.5 -66s-42.5 -26 -70.5 -26z" />
    <glyph glyph-name="Jcircumflex" unicode="&#x134;" horiz-adv-x="478" 
d="M128 759l114 146h150l110 -146h-130l-59 49l-58 -49h-127zM163 -9c-53.333 0 -96.667 8 -130 24v153c28 -9.33301 57 -14 87 -14c62 0 93 33 93 99v462h206v-464c0 -86 -21.667 -150.833 -65 -194.5s-107 -65.5 -191 -65.5z" />
    <glyph glyph-name="jcircumflex" unicode="&#x135;" horiz-adv-x="295" 
d="M-6 -184v130c22 1.33301 38.167 7 48.5 17s15.5 25 15.5 45v515h178v-519c0 -61.333 -18 -108 -54 -140s-98.667 -48 -188 -48zM-38 585l123 163h128l118 -163h-125l-61 56l-60 -56h-123z" />
    <glyph glyph-name="Kcommaaccent" unicode="&#x136;" horiz-adv-x="726" 
d="M69 0v715h206v-283l215 283h214l-262 -332l276 -383h-237l-206 299v-299h-206zM358 -232l-101 27l42 177l158 -19z" />
    <glyph glyph-name="kcommaaccent" unicode="&#x137;" horiz-adv-x="577" 
d="M53 0v753h179v-437l141 207h186l-171 -235l185 -288h-200l-141 229v-229h-179zM286 -232l-101 27l42 177l158 -19z" />
    <glyph glyph-name="Lacute" unicode="&#x139;" horiz-adv-x="575" 
d="M99 759l51 146h187l-103 -146h-135zM69 0v715h206v-556h270v-159h-476z" />
    <glyph glyph-name="lacute" unicode="&#x13a;" horiz-adv-x="294" 
d="M58 0v753h178v-753h-178z" />
    <glyph glyph-name="Lcommaaccent" unicode="&#x13b;" horiz-adv-x="575" 
d="M289 -232l-101 27l42 177l158 -19zM69 0v715h206v-556h270v-159h-476z" />
    <glyph glyph-name="lcommaaccent" unicode="&#x13c;" horiz-adv-x="294" 
d="M133 -232l-101 27l42 177l158 -19zM58 0v753h178v-753h-178z" />
    <glyph glyph-name="Lcaron" unicode="&#x13d;" horiz-adv-x="575" 
d="M344 539l16 176h148l-61 -176h-103zM69 0v715h206v-556h270v-159h-476z" />
    <glyph glyph-name="lcaron" unicode="&#x13e;" horiz-adv-x="294" 
d="M272 579l9 174h133l-49 -174h-93zM58 0v753h178v-753h-178z" />
    <glyph glyph-name="Ldot" unicode="&#x13f;" horiz-adv-x="601" 
d="M69 0v715h206v-556h270v-159h-476zM474 299c-29.333 0 -53.666 9.83301 -72.999 29.5s-29 43.5 -29 71.5s9.66699 51.833 29 71.5s43.666 29.5 72.999 29.5c30 0 55 -9.83301 75 -29.5s30 -43.5 30 -71.5s-10 -51.833 -30 -71.5s-45 -29.5 -75 -29.5z" />
    <glyph glyph-name="ldot" unicode="&#x140;" horiz-adv-x="455" 
d="M58 0v753h178v-753h-178zM372 258c-29.333 0 -53.666 9.83301 -72.999 29.5s-29 43.5 -29 71.5s9.66699 51.833 29 71.5s43.666 29.5 72.999 29.5c30 0 55 -9.83301 75 -29.5s30 -43.5 30 -71.5s-10 -51.833 -30 -71.5s-45 -29.5 -75 -29.5z" />
    <glyph glyph-name="Lslash" unicode="&#x141;" horiz-adv-x="593" 
d="M25 229v108l63 22v356h205v-285l180 63v-109l-180 -62v-163h271v-159h-476v251z" />
    <glyph glyph-name="lslash" unicode="&#x142;" horiz-adv-x="333" 
d="M17 261v115l61 29v348h178v-261l64 31v-116l-64 -31v-376h-178v290z" />
    <glyph glyph-name="Nacute" unicode="&#x143;" horiz-adv-x="777" 
d="M330 759l51 146h187l-103 -146h-135zM69 0v715h231l229 -403v403h179v-715h-198l-261 449v-449h-180z" />
    <glyph glyph-name="nacute" unicode="&#x144;" horiz-adv-x="624" 
d="M244 583l53 166h180l-105 -166h-128zM53 0l-0.000976562 523.001h179v-84c15.333 29.333 37.5 53 66.5 71s64.167 27 105.5 27c52.667 0 94.334 -16.667 125.001 -50s46 -82.333 46 -147v-340h-179v304c0 58.667 -25 88 -75 88c-27.333 0 -49 -8.33301 -65 -25
s-24 -41.334 -24 -74.001v-293h-179z" />
    <glyph glyph-name="Ncommaaccent" unicode="&#x145;" horiz-adv-x="777" 
d="M369 -232l-101 27l42 177l158 -19zM69 0v715h231l229 -403v403h179v-715h-198l-261 449v-449h-180z" />
    <glyph glyph-name="ncommaaccent" unicode="&#x146;" horiz-adv-x="624" 
d="M298 -232l-101 27l42 177l158 -19zM53 0l-0.000976562 523.001h179v-84c15.333 29.333 37.5 53 66.5 71s64.167 27 105.5 27c52.667 0 94.334 -16.667 125.001 -50s46 -82.333 46 -147v-340h-179v304c0 58.667 -25 88 -75 88c-27.333 0 -49 -8.33301 -65 -25
s-24 -41.334 -24 -74.001v-293h-179z" />
    <glyph glyph-name="Ncaron" unicode="&#x147;" horiz-adv-x="777" 
d="M328 759l-110 146h130l58 -49l59 49h127l-114 -146h-150zM69 0v715h231l229 -403v403h179v-715h-198l-261 449v-449h-180z" />
    <glyph glyph-name="ncaron" unicode="&#x148;" horiz-adv-x="624" 
d="M247 585l-119 163h125l61 -56l61 56h122l-123 -163h-127zM53 0l-0.000976562 523.001h179v-84c15.333 29.333 37.5 53 66.5 71s64.167 27 105.5 27c52.667 0 94.334 -16.667 125.001 -50s46 -82.333 46 -147v-340h-179v304c0 58.667 -25 88 -75 88
c-27.333 0 -49 -8.33301 -65 -25s-24 -41.334 -24 -74.001v-293h-179z" />
    <glyph glyph-name="napostrophe" unicode="&#x149;" horiz-adv-x="743" 
d="M70 428l-101 39l80 261l158 -53zM171 0l-0.000976562 523.001h179v-84c15.333 29.333 37.5 53 66.5 71s64.167 27 105.5 27c52.667 0 94.334 -16.667 125.001 -50s46 -82.333 46 -147v-340h-179v304c0 58.667 -25 88 -75 88c-27.333 0 -49 -8.33301 -65 -25
s-24 -41.334 -24 -74.001v-293h-179z" />
    <glyph glyph-name="Eng" unicode="&#x14a;" horiz-adv-x="777" 
d="M467 -192c-50 0 -91 7.66699 -123 23v145c26.667 -9.33301 52.667 -14 78 -14c47.333 0 74.333 18 81 54l-249 450v-466h-185v715h234l221 -412v412h184v-692c0 -66.667 -20.667 -119.167 -62 -157.5s-101 -57.5 -179 -57.5z" />
    <glyph glyph-name="eng" unicode="&#x14b;" horiz-adv-x="624" 
d="M333 -184l-0.000976562 130c22 1.33301 38 6.83301 48 16.5s15 24.834 15 45.501v296c0 58.667 -25 88 -75 88c-27.333 0 -49 -8.33301 -65 -25s-24 -41.334 -24 -74.001v-293h-179v523h179v-84c15.333 29.333 37.5 53 66.5 71s64.167 27 105.5 27
c52.667 0 94.334 -16.667 125.001 -50s46 -82.333 46 -147v-336c0 -61.333 -18 -108 -54 -140s-98.667 -48 -188 -48z" />
    <glyph glyph-name="Omacron" unicode="&#x14c;" horiz-adv-x="819" 
d="M247 771v107h322v-107h-322zM410 149c50.667 0 90.668 18.333 120.001 55s44 87 44 151v8c0 63.333 -14.833 112.833 -44.5 148.5s-69.834 53.5 -120.501 53.5s-90.667 -17.667 -120 -53s-44 -85.333 -44 -150v-8c0 -64 15 -114.167 45 -150.5s70 -54.5 120 -54.5z
M406.001 -12c-114 0 -205.001 33.667 -273.001 101s-102 155.333 -102 264v8c0 107.333 35.833 194.833 107.5 262.5s161.834 101.5 270.501 101.5c110.667 0 201.5 -32.5 272.5 -97.5s106.5 -152.167 106.5 -261.5v-8c0 -110.667 -34.833 -200 -104.5 -268
s-162.167 -102 -277.5 -102z" />
    <glyph glyph-name="omacron" unicode="&#x14d;" horiz-adv-x="622" 
d="M157 612v100h307v-100h-307zM312 121c33.333 0 58.833 11.833 76.5 35.5s26.5 57.5 26.5 101.5v8c0 91.333 -34.333 137 -103 137c-33.333 0 -59 -11.5 -77 -34.5s-27 -56.5 -27 -100.5v-8c0 -92.667 34.667 -139 104 -139zM311 -12c-82.667 0 -151 24 -205 72
s-81 113 -81 195v8c0 82.667 27.167 149 81.5 199s122.833 75 205.5 75c82 0 150 -24.5 204 -73.5s81 -114.167 81 -195.5v-8c0 -83.333 -27 -149.5 -81 -198.5s-122.333 -73.5 -205 -73.5z" />
    <glyph glyph-name="Obreve" unicode="&#x14e;" horiz-adv-x="819" 
d="M407 752c-48.667 0 -87.499 13.499 -116.499 40.499s-45.167 64.5 -48.5 112.5h116c3.33301 -30.667 19.666 -46 48.999 -46c30 0 47.333 15.333 52 46h115c-4 -47.333 -21 -84.666 -51 -111.999s-68.667 -41 -116 -41zM410.001 148.999
c50.667 0 90.668 18.333 120.001 55s44 87 44 151v8c0 63.333 -14.833 112.833 -44.5 148.5s-69.834 53.5 -120.501 53.5s-90.667 -17.667 -120 -53s-44 -85.333 -44 -150v-8c0 -64 15 -114.167 45 -150.5s70 -54.5 120 -54.5zM406.002 -12.001
c-114 0 -205.001 33.667 -273.001 101s-102 155.333 -102 264v8c0 107.333 35.833 194.833 107.5 262.5s161.834 101.5 270.501 101.5c110.667 0 201.5 -32.5 272.5 -97.5s106.5 -152.167 106.5 -261.5v-8c0 -110.667 -34.833 -200 -104.5 -268s-162.167 -102 -277.5 -102z
" />
    <glyph glyph-name="obreve" unicode="&#x14f;" horiz-adv-x="622" 
d="M312 121c33.333 0 58.833 11.833 76.5 35.5s26.5 57.5 26.5 101.5v8c0 91.333 -34.333 137 -103 137c-33.333 0 -59 -11.5 -77 -34.5s-27 -56.5 -27 -100.5v-8c0 -92.667 34.667 -139 104 -139zM311 -12c-82.667 0 -151 24 -205 72s-81 113 -81 195v8
c0 82.667 27.167 149 81.5 199s122.833 75 205.5 75c82 0 150 -24.5 204 -73.5s81 -114.167 81 -195.5v-8c0 -83.333 -27 -149.5 -81 -198.5s-122.333 -73.5 -205 -73.5zM310 587c-48 0 -86.499 13.833 -115.499 41.5s-44.833 66.5 -47.5 116.5h111
c3.33301 -32 20.666 -48 51.999 -48c32.667 0 50.667 16 54 48h111c-2.66699 -50 -19 -88.833 -49 -116.5s-68.667 -41.5 -116 -41.5z" />
    <glyph glyph-name="Ohungarumlaut" unicode="&#x150;" horiz-adv-x="819" 
d="M239 759l41 146h153l-74 -146h-120zM433 759l41 146h154l-75 -146h-120zM410 149c50.667 0 90.668 18.333 120.001 55s44 87 44 151v8c0 63.333 -14.833 112.833 -44.5 148.5s-69.834 53.5 -120.501 53.5s-90.667 -17.667 -120 -53s-44 -85.333 -44 -150v-8
c0 -64 15 -114.167 45 -150.5s70 -54.5 120 -54.5zM406.001 -12c-114 0 -205.001 33.667 -273.001 101s-102 155.333 -102 264v8c0 107.333 35.833 194.833 107.5 262.5s161.834 101.5 270.501 101.5c110.667 0 201.5 -32.5 272.5 -97.5s106.5 -152.167 106.5 -261.5v-8
c0 -110.667 -34.833 -200 -104.5 -268s-162.167 -102 -277.5 -102z" />
    <glyph glyph-name="ohungarumlaut" unicode="&#x151;" horiz-adv-x="622" 
d="M157 583l44 166h140l-77 -166h-107zM335 583l43 166h140l-77 -166h-106zM312 121c33.333 0 58.833 11.833 76.5 35.5s26.5 57.5 26.5 101.5v8c0 91.333 -34.333 137 -103 137c-33.333 0 -59 -11.5 -77 -34.5s-27 -56.5 -27 -100.5v-8c0 -92.667 34.667 -139 104 -139z
M311 -12c-82.667 0 -151 24 -205 72s-81 113 -81 195v8c0 82.667 27.167 149 81.5 199s122.833 75 205.5 75c82 0 150 -24.5 204 -73.5s81 -114.167 81 -195.5v-8c0 -83.333 -27 -149.5 -81 -198.5s-122.333 -73.5 -205 -73.5z" />
    <glyph glyph-name="OE" unicode="&#x152;" horiz-adv-x="979" 
d="M31 357c0 112.667 32.833 200.5 98.5 263.5s160.167 94.5 283.5 94.5h517v-158h-275v-123h216v-146h-216v-130h291v-158h-533c-124.667 0 -219.5 30.167 -284.5 90.5s-97.5 146.5 -97.5 258.5v8zM452 557h-32c-60.667 0 -105 -16 -133 -48s-42 -81.667 -42 -149v-8
c0 -68 14 -117.333 42 -148s72.667 -46 134 -46h31v399z" />
    <glyph glyph-name="oe" unicode="&#x153;" horiz-adv-x="985" 
d="M311 -12c-82.667 0 -151 23.999 -205 71.999s-81 113 -81 195v8c0 82.667 27.167 149 81.5 199s122.833 75 205.5 75c80 0 144.333 -26.333 193 -79c48.667 52.667 112 79 190 79c76.667 0 140.167 -22.667 190.5 -68s75.5 -112.666 75.5 -201.999v-47h-368
c2.66699 -34.667 13.5 -61.5 32.5 -80.5s44.5 -28.5 76.5 -28.5c52.667 0 83 20.667 91 62h168c-8 -59.333 -34.5 -105 -79.5 -137s-106.833 -48 -185.5 -48c-83.333 0 -148.333 25.333 -195 76c-46.667 -50.667 -110 -76 -190 -76zM312 120.999
c33.333 0 58.833 11.833 76.5 35.5s26.5 57.5 26.5 101.5v8c0 91.333 -34.333 137 -103 137c-33.333 0 -59 -11.5 -77 -34.5s-27 -56.5 -27 -100.5v-8c0 -92.667 34.667 -139 104 -139zM595 320.999h191.999c-3.33301 65.333 -34 98 -92 98
c-27.333 0 -49.666 -8.5 -66.999 -25.5s-28.333 -41.167 -33 -72.5z" />
    <glyph glyph-name="Racute" unicode="&#x154;" horiz-adv-x="697" 
d="M261 759l51 146h187l-103 -146h-135zM69 0v715h280c94 0 166 -19.167 216 -57.5s75 -94.833 75 -169.5v-4c0 -92 -43 -154.667 -129 -188l171 -296h-216l-145 256h-48v-256h-204zM273 389h66c68.667 0 103 29 103 87v4c0 54 -34 81 -102 81h-67v-172z" />
    <glyph glyph-name="racute" unicode="&#x155;" horiz-adv-x="428" 
d="M165 583l53 166h180l-105 -166h-128zM53 0v523h179v-104c32 74.667 88.333 111.667 169 111v-167c-112.667 3.33301 -169 -35 -169 -115v-248h-179z" />
    <glyph glyph-name="Rcommaaccent" unicode="&#x156;" horiz-adv-x="697" 
d="M351 -232l-101 27l42 177l158 -19zM69 0v715h280c94 0 166 -19.167 216 -57.5s75 -94.833 75 -169.5v-4c0 -92 -43 -154.667 -129 -188l171 -296h-216l-145 256h-48v-256h-204zM273 389h66c68.667 0 103 29 103 87v4c0 54 -34 81 -102 81h-67v-172z" />
    <glyph glyph-name="rcommaaccent" unicode="&#x157;" horiz-adv-x="428" 
d="M131 -232l-101 27l42 177l158 -19zM53 0v523h179v-104c32 74.667 88.333 111.667 169 111v-167c-112.667 3.33301 -169 -35 -169 -115v-248h-179z" />
    <glyph glyph-name="Rcaron" unicode="&#x158;" horiz-adv-x="697" 
d="M259 759l-110 146h130l58 -49l59 49h127l-114 -146h-150zM69 0v715h280c94 0 166 -19.167 216 -57.5s75 -94.833 75 -169.5v-4c0 -92 -43 -154.667 -129 -188l171 -296h-216l-145 256h-48v-256h-204zM273 389h66c68.667 0 103 29 103 87v4c0 54 -34 81 -102 81h-67v-172z
" />
    <glyph glyph-name="rcaron" unicode="&#x159;" horiz-adv-x="428" 
d="M168 585l-119 163h125l61 -56l61 56h122l-123 -163h-127zM53 0v523h179v-104c32 74.667 88.333 111.667 169 111v-167c-112.667 3.33301 -169 -35 -169 -115v-248h-179z" />
    <glyph glyph-name="Sacute" unicode="&#x15a;" horiz-adv-x="647" 
d="M331 -12c-99.333 0 -174.668 20.332 -226.001 60.999s-78.666 100 -81.999 178h195c2.66699 -29.333 12.334 -52.166 29.001 -68.499s44.667 -24.5 84 -24.5c28.667 0 51.167 6.5 67.5 19.5s24.5 30.167 24.5 51.5s-7.66699 36.5 -23 45.5s-45.333 16.833 -90 23.5
c-100.667 12 -170.834 34.833 -210.501 68.5s-59.5 86.834 -59.5 159.501c0 65.333 25.167 118.833 75.5 160.5s117.5 62.5 201.5 62.5c175.333 0 269.333 -74.333 282 -223h-190c-7.33301 51.333 -38 77 -92 77c-26.667 0 -47.167 -5.5 -61.5 -16.5
s-21.5 -25.833 -21.5 -44.5c0 -20.667 7.66699 -36 23 -46s44.666 -18 87.999 -24c96 -10.667 165.667 -31.834 209 -63.501s65 -84.5 65 -158.5c0 -68 -25.667 -124.667 -77 -170s-121.666 -68 -210.999 -68zM244.998 758.999l51 146h187l-103 -146h-135z" />
    <glyph glyph-name="sacute" unicode="&#x15b;" horiz-adv-x="515" 
d="M187 583l53 166h180l-105 -166h-128zM258 -12c-74.667 0 -132.833 15.166 -174.5 45.499s-63.5 74.5 -65.5 132.5h165c3.33301 -20 10.333 -34.833 21 -44.5s28.334 -14.5 53.001 -14.5c42.667 0 64 14.333 64 43c0 12.667 -7.16699 22.334 -21.5 29.001
s-39.5 12.667 -75.5 18c-71.333 9.33301 -122.333 26.333 -153 51s-46 63.667 -46 117c0 55.333 21.333 97.833 64 127.5s96 44.5 160 44.5c143.333 0 220.333 -56.333 231 -169h-162c-6.66699 34.667 -29 52 -67 52c-18.667 0 -33.167 -3.66699 -43.5 -11
s-15.5 -17.333 -15.5 -30c0 -12 6.5 -21.167 19.5 -27.5s35.833 -11.5 68.5 -15.5c76 -9.33301 130.833 -26.166 164.5 -50.499s50.5 -63.5 50.5 -117.5c0 -60.667 -20.833 -105.834 -62.5 -135.501s-99.834 -44.5 -174.501 -44.5z" />
    <glyph glyph-name="Scircumflex" unicode="&#x15c;" horiz-adv-x="647" 
d="M134 759l114 146h150l110 -146h-130l-59 49l-58 -49h-127zM331 -12c-99.333 0 -174.668 20.332 -226.001 60.999s-78.666 100 -81.999 178h195c2.66699 -29.333 12.334 -52.166 29.001 -68.499s44.667 -24.5 84 -24.5c28.667 0 51.167 6.5 67.5 19.5
s24.5 30.167 24.5 51.5s-7.66699 36.5 -23 45.5s-45.333 16.833 -90 23.5c-100.667 12 -170.834 34.833 -210.501 68.5s-59.5 86.834 -59.5 159.501c0 65.333 25.167 118.833 75.5 160.5s117.5 62.5 201.5 62.5c175.333 0 269.333 -74.333 282 -223h-190
c-7.33301 51.333 -38 77 -92 77c-26.667 0 -47.167 -5.5 -61.5 -16.5s-21.5 -25.833 -21.5 -44.5c0 -20.667 7.66699 -36 23 -46s44.666 -18 87.999 -24c96 -10.667 165.667 -31.834 209 -63.501s65 -84.5 65 -158.5c0 -68 -25.667 -124.667 -77 -170
s-121.666 -68 -210.999 -68z" />
    <glyph glyph-name="scircumflex" unicode="&#x15d;" horiz-adv-x="515" 
d="M69 585l123 163h128l118 -163h-125l-61 56l-60 -56h-123zM258 -12c-74.667 0 -132.833 15.166 -174.5 45.499s-63.5 74.5 -65.5 132.5h165c3.33301 -20 10.333 -34.833 21 -44.5s28.334 -14.5 53.001 -14.5c42.667 0 64 14.333 64 43
c0 12.667 -7.16699 22.334 -21.5 29.001s-39.5 12.667 -75.5 18c-71.333 9.33301 -122.333 26.333 -153 51s-46 63.667 -46 117c0 55.333 21.333 97.833 64 127.5s96 44.5 160 44.5c143.333 0 220.333 -56.333 231 -169h-162c-6.66699 34.667 -29 52 -67 52
c-18.667 0 -33.167 -3.66699 -43.5 -11s-15.5 -17.333 -15.5 -30c0 -12 6.5 -21.167 19.5 -27.5s35.833 -11.5 68.5 -15.5c76 -9.33301 130.833 -26.166 164.5 -50.499s50.5 -63.5 50.5 -117.5c0 -60.667 -20.833 -105.834 -62.5 -135.501s-99.834 -44.5 -174.501 -44.5z
" />
    <glyph glyph-name="Scedilla" unicode="&#x15e;" horiz-adv-x="647" 
d="M305 -226c-36 0 -64.998 7.99805 -86.998 23.998s-35.333 39 -40 69h84c4.66699 -18.667 16.667 -28 36 -28c10 0 17.833 2.83301 23.5 8.5s8.5 12.834 8.5 21.501c0 9.33301 -3 16.833 -9 22.5s-14 8.5 -24 8.5c-12.667 0 -23.334 -3.66699 -32.001 -11l-39 38l42 64
c-158 16 -239.667 94.667 -245 236h195c2.66699 -29.333 12.334 -52.166 29.001 -68.499s44.667 -24.5 84 -24.5c28.667 0 51.167 6.5 67.5 19.5s24.5 30.167 24.5 51.5s-7.66699 36.5 -23 45.5s-45.333 16.833 -90 23.5c-100.667 12 -170.834 34.833 -210.501 68.5
s-59.5 86.834 -59.5 159.501c0 65.333 25.167 118.833 75.5 160.5s117.5 62.5 201.5 62.5c175.333 0 269.333 -74.333 282 -223h-190c-7.33301 51.333 -38 77 -92 77c-26.667 0 -47.167 -5.5 -61.5 -16.5s-21.5 -25.833 -21.5 -44.5c0 -20.667 7.66699 -36 23 -46
s44.666 -18 87.999 -24c96 -10.667 165.667 -31.834 209 -63.501s65 -84.5 65 -158.5c0 -67.333 -25.167 -123.5 -75.5 -168.5s-119.166 -68.167 -206.499 -69.5l-22 -33c31.333 3.33301 57.666 -2.5 78.999 -17.5s32 -37.833 32 -68.5c0 -30 -11 -53.333 -33 -70
s-51.333 -25 -88 -25z" />
    <glyph glyph-name="scedilla" unicode="&#x15f;" horiz-adv-x="515" 
d="M240 -226c-36 0 -64.998 7.99805 -86.998 23.998s-35.333 39 -40 69h84c4.66699 -18.667 16.667 -28 36 -28c10 0 17.833 2.83301 23.5 8.5s8.5 12.834 8.5 21.501c0 9.33301 -3 16.833 -9 22.5s-14 8.5 -24 8.5c-12.667 0 -23.334 -3.66699 -32.001 -11l-39 38l42 64
c-58.667 7.33301 -103.834 25.833 -135.501 55.5s-48.167 69.5 -49.5 119.5h165c3.33301 -20 10.333 -34.833 21 -44.5s28.334 -14.5 53.001 -14.5c42.667 0 64 14.333 64 43c0 12.667 -7.16699 22.334 -21.5 29.001s-39.5 12.667 -75.5 18
c-71.333 9.33301 -122.333 26.333 -153 51s-46 63.667 -46 117c0 55.333 21.333 97.833 64 127.5s96 44.5 160 44.5c143.333 0 220.333 -56.333 231 -169h-162c-6.66699 34.667 -29 52 -67 52c-18.667 0 -33.167 -3.66699 -43.5 -11s-15.5 -17.333 -15.5 -30
c0 -12 6.5 -21.167 19.5 -27.5s35.833 -11.5 68.5 -15.5c76 -9.33301 130.833 -26.166 164.5 -50.499s50.5 -63.5 50.5 -117.5c0 -58.667 -19.5 -102.834 -58.5 -132.501s-93.5 -45.5 -163.5 -47.5l-23 -33c31.333 3.33301 57.666 -2.5 78.999 -17.5s32 -37.833 32 -68.5
c0 -30 -11 -53.333 -33 -70s-51.333 -25 -88 -25z" />
    <glyph glyph-name="Scaron" unicode="&#x160;" horiz-adv-x="647" 
d="M243 759l-110 146h130l58 -49l59 49h127l-114 -146h-150zM331 -12c-99.333 0 -174.668 20.332 -226.001 60.999s-78.666 100 -81.999 178h195c2.66699 -29.333 12.334 -52.166 29.001 -68.499s44.667 -24.5 84 -24.5c28.667 0 51.167 6.5 67.5 19.5
s24.5 30.167 24.5 51.5s-7.66699 36.5 -23 45.5s-45.333 16.833 -90 23.5c-100.667 12 -170.834 34.833 -210.501 68.5s-59.5 86.834 -59.5 159.501c0 65.333 25.167 118.833 75.5 160.5s117.5 62.5 201.5 62.5c175.333 0 269.333 -74.333 282 -223h-190
c-7.33301 51.333 -38 77 -92 77c-26.667 0 -47.167 -5.5 -61.5 -16.5s-21.5 -25.833 -21.5 -44.5c0 -20.667 7.66699 -36 23 -46s44.666 -18 87.999 -24c96 -10.667 165.667 -31.834 209 -63.501s65 -84.5 65 -158.5c0 -68 -25.667 -124.667 -77 -170
s-121.666 -68 -210.999 -68z" />
    <glyph glyph-name="scaron" unicode="&#x161;" horiz-adv-x="515" 
d="M185 585l-119 163h125l61 -56l61 56h122l-123 -163h-127zM258 -12c-74.667 0 -132.833 15.166 -174.5 45.499s-63.5 74.5 -65.5 132.5h165c3.33301 -20 10.333 -34.833 21 -44.5s28.334 -14.5 53.001 -14.5c42.667 0 64 14.333 64 43
c0 12.667 -7.16699 22.334 -21.5 29.001s-39.5 12.667 -75.5 18c-71.333 9.33301 -122.333 26.333 -153 51s-46 63.667 -46 117c0 55.333 21.333 97.833 64 127.5s96 44.5 160 44.5c143.333 0 220.333 -56.333 231 -169h-162c-6.66699 34.667 -29 52 -67 52
c-18.667 0 -33.167 -3.66699 -43.5 -11s-15.5 -17.333 -15.5 -30c0 -12 6.5 -21.167 19.5 -27.5s35.833 -11.5 68.5 -15.5c76 -9.33301 130.833 -26.166 164.5 -50.499s50.5 -63.5 50.5 -117.5c0 -60.667 -20.833 -105.834 -62.5 -135.501s-99.834 -44.5 -174.501 -44.5z
" />
    <glyph glyph-name="Tcommaaccent" unicode="&#x162;" horiz-adv-x="618" 
d="M293 -232l-101 27l42 177l158 -19zM206 0v557h-185v158h576v-158h-185v-557h-206z" />
    <glyph glyph-name="tcommaaccent" unicode="&#x163;" horiz-adv-x="389" 
d="M195 -232l-101 27l42 177l158 -19zM261 -12c-122.667 0 -184 60 -184 180v233h-63v122h63v109h179v-109h103v-122h-103v-216c0 -36.667 17.667 -55 53 -55c18 0 35 3 51 9v-136c-38.667 -10 -71.667 -15 -99 -15z" />
    <glyph glyph-name="Tcaron" unicode="&#x164;" horiz-adv-x="618" 
d="M230 759l-110 146h130l58 -49l59 49h127l-114 -146h-150zM206 0v557h-185v158h576v-158h-185v-557h-206z" />
    <glyph glyph-name="tcaron" unicode="&#x165;" horiz-adv-x="389" 
d="M301 579l9 174h133l-49 -174h-93zM261 -12c-122.667 0 -184 60 -184 180v233h-63v122h63v109h179v-109h103v-122h-103v-216c0 -36.667 17.667 -55 53 -55c18 0 35 3 51 9v-136c-38.667 -10 -71.667 -15 -99 -15z" />
    <glyph glyph-name="Tbar" unicode="&#x166;" horiz-adv-x="618" 
d="M80 279v128h126v150h-185v158h576v-158h-185v-150h126v-128h-126v-279h-206v279h-126z" />
    <glyph glyph-name="tbar" unicode="&#x167;" horiz-adv-x="389" 
d="M14 233v99h63v69h-63v122h63v109h179v-109h103v-122h-103v-69h103v-99h-103v-48c0 -36.667 17.667 -55 53 -55c18 0 35 3 51 9v-136c-38.667 -10 -71.667 -15 -99 -15c-122.667 0 -184 60 -184 180v65h-63z" />
    <glyph glyph-name="Utilde" unicode="&#x168;" horiz-adv-x="764" 
d="M381 -12c-102 0 -180.333 25.5 -235 76.5s-82 126.167 -82 225.5v425h205v-416c0 -52.667 8.16699 -90.834 24.5 -114.501s45.5 -35.5 87.5 -35.5c41.333 0 70.333 11.833 87 35.5s25 62.834 25 117.501v413h207v-422c0 -101.333 -27.833 -177.5 -83.5 -228.5
s-134.167 -76.5 -235.5 -76.5zM445 758c-21.333 0 -44.6699 5.66699 -70.0029 17s-42 17 -50 17s-14.833 -3 -20.5 -9s-9.16699 -14 -10.5 -24h-102c3.33301 50 16.333 88 39 114s50.334 39 83.001 39c20 0 42.833 -5.5 68.5 -16.5s43.167 -16.5 52.5 -16.5
c16.667 0 27.334 10.667 32.001 32h101c-3.33301 -50 -16.666 -88 -39.999 -114s-51 -39 -83 -39z" />
    <glyph glyph-name="utilde" unicode="&#x169;" horiz-adv-x="623" 
d="M225 -12c-52.667 0 -95.167 16.499 -127.5 49.499s-48.5 81.167 -48.5 144.5v341h179v-312c0 -58.667 24.667 -88 74 -88c28 0 49.833 8.33301 65.5 25s23.5 41.334 23.5 74.001v301h179v-523h-179v81c-32 -62 -87.333 -93 -166 -93zM374 586.999
c-20.667 0 -43.335 5.50098 -68.002 16.501s-41 16.5 -49 16.5c-17.333 0 -27.666 -10.667 -30.999 -32h-97c3.33301 51.333 15.333 90.166 36 116.499s47 39.5 79 39.5c20 0 42.5 -5.66699 67.5 -17s42.167 -17 51.5 -17c16.667 0 27.334 10.667 32.001 32h97
c-4 -50 -16.833 -88.333 -38.5 -115s-48.167 -40 -79.5 -40z" />
    <glyph glyph-name="Umacron" unicode="&#x16a;" horiz-adv-x="764" 
d="M381 -12c-102 0 -180.333 25.5 -235 76.5s-82 126.167 -82 225.5v425h205v-416c0 -52.667 8.16699 -90.834 24.5 -114.501s45.5 -35.5 87.5 -35.5c41.333 0 70.333 11.833 87 35.5s25 62.834 25 117.501v413h207v-422c0 -101.333 -27.833 -177.5 -83.5 -228.5
s-134.167 -76.5 -235.5 -76.5zM219 771v107h322v-107h-322z" />
    <glyph glyph-name="umacron" unicode="&#x16b;" horiz-adv-x="623" 
d="M225 -12c-52.667 0 -95.167 16.499 -127.5 49.499s-48.5 81.167 -48.5 144.5v341h179v-312c0 -58.667 24.667 -88 74 -88c28 0 49.833 8.33301 65.5 25s23.5 41.334 23.5 74.001v301h179v-523h-179v81c-32 -62 -87.333 -93 -166 -93zM156 611.999v100h307v-100h-307z" />
    <glyph glyph-name="Ubreve" unicode="&#x16c;" horiz-adv-x="764" 
d="M381 -12c-102 0 -180.333 25.5 -235 76.5s-82 126.167 -82 225.5v425h205v-416c0 -52.667 8.16699 -90.834 24.5 -114.501s45.5 -35.5 87.5 -35.5c41.333 0 70.333 11.833 87 35.5s25 62.834 25 117.501v413h207v-422c0 -101.333 -27.833 -177.5 -83.5 -228.5
s-134.167 -76.5 -235.5 -76.5zM379 752c-48.667 0 -87.499 13.499 -116.499 40.499s-45.167 64.5 -48.5 112.5h116c3.33301 -30.667 19.666 -46 48.999 -46c30 0 47.333 15.333 52 46h115c-4 -47.333 -21 -84.666 -51 -111.999s-68.667 -41 -116 -41z" />
    <glyph glyph-name="ubreve" unicode="&#x16d;" horiz-adv-x="623" 
d="M225 -12c-52.667 0 -95.167 16.499 -127.5 49.499s-48.5 81.167 -48.5 144.5v341h179v-312c0 -58.667 24.667 -88 74 -88c28 0 49.833 8.33301 65.5 25s23.5 41.334 23.5 74.001v301h179v-523h-179v81c-32 -62 -87.333 -93 -166 -93zM309 586.999
c-48 0 -86.499 13.833 -115.499 41.5s-44.833 66.5 -47.5 116.5h111c3.33301 -32 20.666 -48 51.999 -48c32.667 0 50.667 16 54 48h111c-2.66699 -50 -19 -88.833 -49 -116.5s-68.667 -41.5 -116 -41.5z" />
    <glyph glyph-name="Uring" unicode="&#x16e;" horiz-adv-x="764" 
d="M381 -12c-102 0 -180.333 25.5 -235 76.5s-82 126.167 -82 225.5v425h205v-416c0 -52.667 8.16699 -90.834 24.5 -114.501s45.5 -35.5 87.5 -35.5c41.333 0 70.333 11.833 87 35.5s25 62.834 25 117.501v413h207v-422c0 -101.333 -27.833 -177.5 -83.5 -228.5
s-134.167 -76.5 -235.5 -76.5zM380 790c13.333 0 24.333 4.66504 33 13.998s13 21.333 13 36s-4.33301 26.834 -13 36.501s-19.667 14.5 -33 14.5c-14 0 -25.167 -4.66699 -33.5 -14s-12.5 -21.666 -12.5 -36.999c0 -14.667 4.16699 -26.667 12.5 -36s19.5 -14 33.5 -14z
M380 723.998c-32.667 0 -60.8301 11.5 -84.4971 34.5s-35.5 50.167 -35.5 81.5c0 32 11.667 59.333 35 82s51.666 34 84.999 34s61.666 -11.333 84.999 -34s35 -50 35 -82c0 -31.333 -11.833 -58.5 -35.5 -81.5s-51.834 -34.5 -84.501 -34.5z" />
    <glyph glyph-name="uring" unicode="&#x16f;" horiz-adv-x="623" 
d="M309 619c13.333 0 24.333 4.66699 33 14s13 21.333 13 36s-4.33301 26.667 -13 36s-19.667 14 -33 14s-24.333 -4.66699 -33 -14s-13 -21.333 -13 -36s4.33301 -26.667 13 -36s19.667 -14 33 -14zM309 555c-32.667 0 -60.5 11.167 -83.5 33.5s-34.5 49.166 -34.5 80.499
s11.5 58.333 34.5 81s50.833 34 83.5 34s60.5 -11.333 83.5 -34s34.5 -49.667 34.5 -81s-11.5 -58.166 -34.5 -80.499s-50.833 -33.5 -83.5 -33.5zM225 -12c-52.667 0 -95.167 16.499 -127.5 49.499s-48.5 81.167 -48.5 144.5v341h179v-312c0 -58.667 24.667 -88 74 -88
c28 0 49.833 8.33301 65.5 25s23.5 41.334 23.5 74.001v301h179v-523h-179v81c-32 -62 -87.333 -93 -166 -93z" />
    <glyph glyph-name="Uhungarumlaut" unicode="&#x170;" horiz-adv-x="764" 
d="M211 759l41 146h153l-74 -146h-120zM405 759l41 146h154l-75 -146h-120zM381 -12c-102 0 -180.333 25.5 -235 76.5s-82 126.167 -82 225.5v425h205v-416c0 -52.667 8.16699 -90.834 24.5 -114.501s45.5 -35.5 87.5 -35.5c41.333 0 70.333 11.833 87 35.5
s25 62.834 25 117.501v413h207v-422c0 -101.333 -27.833 -177.5 -83.5 -228.5s-134.167 -76.5 -235.5 -76.5z" />
    <glyph glyph-name="uhungarumlaut" unicode="&#x171;" horiz-adv-x="623" 
d="M225 -12c-52.667 0 -95.167 16.499 -127.5 49.499s-48.5 81.167 -48.5 144.5v341h179v-312c0 -58.667 24.667 -88 74 -88c28 0 49.833 8.33301 65.5 25s23.5 41.334 23.5 74.001v301h179v-523h-179v81c-32 -62 -87.333 -93 -166 -93zM156 582.999l44 166h140l-77 -166
h-107zM334 582.999l43 166h140l-77 -166h-106z" />
    <glyph glyph-name="Uogonek" unicode="&#x172;" horiz-adv-x="764" 
d="M420 -182c-36.667 0 -65.832 7.16504 -87.499 21.498s-32.5 33.833 -32.5 58.5c0 34 21.333 64 64 90c-96.667 3.33301 -170.834 30.333 -222.501 81s-77.5 124.334 -77.5 221.001v425h205v-416c0 -52.667 8.16699 -90.834 24.5 -114.501s45.5 -35.5 87.5 -35.5
c41.333 0 70.333 11.833 87 35.5s25 62.834 25 117.501v413h207v-422c0 -136.667 -51.333 -228.667 -154 -276c-43.333 -19.333 -70 -34.333 -80 -45c-8.66699 -9.33301 -13 -19.666 -13 -30.999c0 -18 10.333 -27 31 -27c10 0 20 1.66699 30 5v-85
c-24 -10.667 -55.333 -16 -94 -16z" />
    <glyph glyph-name="uogonek" unicode="&#x173;" horiz-adv-x="623" 
d="M485 -182c-35.333 0 -63.5 7.33008 -84.5 21.9971s-31.5 34.334 -31.5 59.001c0 40.667 28.667 74.334 86 101.001h-64v81c-32 -62 -87.333 -93 -166 -93c-52.667 0 -95.167 16.5 -127.5 49.5s-48.5 81.167 -48.5 144.5v341h179v-312c0 -58.667 24.667 -88 74 -88
c28 0 49.833 8.33301 65.5 25s23.5 41.334 23.5 74.001v301h179v-511c-36.667 -28 -55 -53 -55 -75c0 -18.667 10 -28 30 -28c10 0 20 1.66699 30 5v-80c-24 -10.667 -54 -16 -90 -16z" />
    <glyph glyph-name="Wcircumflex" unicode="&#x174;" horiz-adv-x="996" 
d="M312 759l114 146h150l110 -146h-130l-59 49l-58 -49h-127zM180 0l-166 715h207l92 -446l96 446h182l104 -450l97 450h190l-167 -715h-214l-110 454l-111 -454h-200z" />
    <glyph glyph-name="wcircumflex" unicode="&#x175;" horiz-adv-x="845" 
d="M237 585l123 163h128l118 -163h-125l-61 56l-60 -56h-123zM167 0l-158 523h187l76 -313l88 313h144l78 -313l85 313h170l-166 -523h-171l-78 292l-81 -292h-174z" />
    <glyph glyph-name="Ycircumflex" unicode="&#x176;" horiz-adv-x="677" 
d="M241 0v306l-233 409h223l121 -241l121 241h196l-222 -409v-306h-206zM158 759l114 146h150l110 -146h-130l-59 49l-58 -49h-127z" />
    <glyph glyph-name="ycircumflex" unicode="&#x177;" horiz-adv-x="589" 
d="M130 -175l87 228l-209 470h194l108 -279l100 279h171l-280 -698h-171zM117 585l123 163h128l118 -163h-125l-61 56l-60 -56h-123z" />
    <glyph glyph-name="Ydieresis" unicode="&#x178;" horiz-adv-x="677" 
d="M241 0v306l-233 409h223l121 -241l121 241h196l-222 -409v-306h-206zM233 758c-23.333 0 -43.333 8.16699 -60 24.5s-25 35.833 -25 58.5c0 23.333 8.33301 43.166 25 59.499s36.667 24.5 60 24.5c24 0 44.333 -8.16699 61 -24.5s25 -36.166 25 -59.499
s-8.33301 -43 -25 -59s-37 -24 -61 -24zM456 758c-24 0 -44.167 8 -60.5 24s-24.5 35.667 -24.5 59s8.16699 43.166 24.5 59.499s36.5 24.5 60.5 24.5s44.333 -8.16699 61 -24.5s25 -36.166 25 -59.499s-8.33301 -43 -25 -59s-37 -24 -61 -24z" />
    <glyph glyph-name="Zacute" unicode="&#x179;" horiz-adv-x="627" 
d="M245 759l51 146h187l-103 -146h-135zM13 0v23l304 535h-265v157h556v-22l-300 -535h285v-158h-580z" />
    <glyph glyph-name="zacute" unicode="&#x17a;" horiz-adv-x="508" 
d="M191 583l53 166h180l-105 -166h-128zM10 0v18l229 370h-205v135h461v-19l-235 -369h223v-135h-473z" />
    <glyph glyph-name="Zdotaccent" unicode="&#x17b;" horiz-adv-x="627" 
d="M13 0v23l304 535h-265v157h556v-22l-300 -535h285v-158h-580zM322 757c-27.333 0 -50 8.5 -68 25.5s-27 38.5 -27 64.5c0 25.333 9 46.5 27 63.5s40.667 25.5 68 25.5s50 -8.5 68 -25.5s27 -38.167 27 -63.5c0 -26 -9 -47.5 -27 -64.5s-40.667 -25.5 -68 -25.5z" />
    <glyph glyph-name="zdotaccent" unicode="&#x17c;" horiz-adv-x="508" 
d="M10 0v18l229 370h-205v135h461v-19l-235 -369h223v-135h-473zM261 579c-27.333 0 -50.166 8.5 -68.499 25.5s-27.5 38.5 -27.5 64.5c0 25.333 9.16699 46.5 27.5 63.5s41.166 25.5 68.499 25.5s50 -8.5 68 -25.5s27 -38.167 27 -63.5c0 -26 -9 -47.5 -27 -64.5
s-40.667 -25.5 -68 -25.5z" />
    <glyph glyph-name="Zcaron" unicode="&#x17d;" horiz-adv-x="627" 
d="M243 759l-110 146h130l58 -49l59 49h127l-114 -146h-150zM13 0v23l304 535h-265v157h556v-22l-300 -535h285v-158h-580z" />
    <glyph glyph-name="zcaron" unicode="&#x17e;" horiz-adv-x="508" 
d="M194 585l-119 163h125l61 -56l61 56h122l-123 -163h-127zM10 0v18l229 370h-205v135h461v-19l-235 -369h223v-135h-473z" />
    <glyph glyph-name="florin" unicode="&#x192;" horiz-adv-x="447" 
d="M23 293v121h90l18 125c18 124 91.667 186 221 186c26 0 52 -3.66699 78 -11v-134c-16 4.66699 -33 7 -51 7c-41.333 0 -65 -21 -71 -63l-16 -110h113v-121h-130l-68 -475h-178l67 475h-73z" />
    <glyph glyph-name="Aringacute" unicode="&#x1fa;" horiz-adv-x="747" 
d="M13 0l229 715h265l227 -715h-217l-38 133h-237l-38 -133h-191zM375 741c-32.667 0 -60.8301 11.5 -84.4971 34.5s-35.5 50.167 -35.5 81.5c0 32 11.667 59.333 35 82s51.666 34 84.999 34s61.666 -11.333 84.999 -34s35 -50 35 -82c0 -31.333 -11.833 -58.5 -35.5 -81.5
s-51.834 -34.5 -84.501 -34.5zM306.004 991l51 146h187l-103 -146h-135zM361.004 549l-79 -275h157zM375.004 807c13.333 0 24.333 4.66504 33 13.998s13 21.333 13 36s-4.33301 26.834 -13 36.501s-19.667 14.5 -33 14.5c-14 0 -25.167 -4.66699 -33.5 -14
s-12.5 -21.666 -12.5 -36.999c0 -14.667 4.16699 -26.667 12.5 -36s19.5 -14 33.5 -14z" />
    <glyph glyph-name="aringacute" unicode="&#x1fb;" horiz-adv-x="578" 
d="M200 -12c-51.333 0 -93.666 12.999 -126.999 38.999s-50 65.333 -50 118c0 114 92.667 171 278 171h50v12c0 27.333 -4.83301 48 -14.5 62s-27.834 21 -54.501 21c-42 0 -65.667 -20.667 -71 -62h-168c4 61.333 28.333 108 73 140s103.667 48 177 48
c74.667 0 132.667 -16.167 174 -48.5s62 -82.166 62 -149.499v-339h-174v61c-32 -48.667 -83.667 -73 -155 -73zM262 108.999c26 0 47.333 6.83203 64 20.499s25 31.5 25 53.5v32h-47c-36.667 0 -63.167 -4.16699 -79.5 -12.5s-24.5 -23.166 -24.5 -44.499
c0 -32.667 20.667 -49 62 -49zM292 635.998c13.333 0 24.333 4.66699 33 14s13 21.333 13 36s-4.33301 26.667 -13 36s-19.667 14 -33 14s-24.333 -4.66699 -33 -14s-13 -21.333 -13 -36s4.33301 -26.667 13 -36s19.667 -14 33 -14zM292 571.998
c-32.667 0 -60.5 11.167 -83.5 33.5s-34.5 49.166 -34.5 80.499s11.5 58.333 34.5 81s50.833 34 83.5 34s60.5 -11.333 83.5 -34s34.5 -49.667 34.5 -81s-11.5 -58.166 -34.5 -80.499s-50.833 -33.5 -83.5 -33.5zM229 828.998l51 146h187l-103 -146h-135z" />
    <glyph glyph-name="AEacute" unicode="&#x1fc;" horiz-adv-x="1002" 
d="M11 0l321 715h622v-158h-283v-123h223v-146h-223v-130h299v-158h-504v146h-197l-63 -146h-195zM537 759l51 146h187l-103 -146h-135zM446 557l-118 -273h138v273h-20z" />
    <glyph glyph-name="aeacute" unicode="&#x1fd;" horiz-adv-x="908" 
d="M627 -12c-94 0 -161.667 30.332 -203 90.999c-46 -60.667 -115 -91 -207 -91c-57.333 0 -104 13 -140 39s-54 65.333 -54 118c0 116 92.333 174 277 174h53v9c0 27.333 -5 48 -15 62s-28.333 21 -55 21c-42 0 -66 -20.667 -72 -62h-168c4 61.333 28 108 72 140
s101 48 171 48c80 0 136.333 -20.667 169 -62c43.333 41.333 99 62 167 62c76 0 138.667 -22.667 188 -68s74 -112.666 74 -201.999v-46h-360c5.33301 -73.333 40 -110 104 -110c51.333 0 81 20.667 89 62h167c-8 -59.333 -34 -105 -78 -137s-103.667 -48 -179 -48z
M401 582.999l53 166h180l-105 -166h-128zM525 318.999h185.999c-4 66.667 -33.667 100 -89 100c-26.667 0 -48.667 -8.66699 -66 -26s-27.666 -42 -30.999 -74zM262.999 108.999c27.333 0 49.167 6.66699 65.5 20s24.5 31.333 24.5 54v35h-50c-36 0 -62.167 -4 -78.5 -12
s-24.5 -22.667 -24.5 -44c0 -35.333 21 -53 63 -53z" />
    <glyph glyph-name="Oslashacute" unicode="&#x1fe;" horiz-adv-x="819" 
d="M91 -32l-59.001 57.999l80 85c-54 64.667 -81 145.334 -81 242.001v8c0 107.333 35.833 194.833 107.5 262.5s161.834 101.5 270.501 101.5c87.333 0 163 -20.667 227 -62l73 77l59 -58l-69 -73c59.333 -63.333 89 -144.333 89 -243v-8
c0 -110.667 -34.833 -200 -104.5 -268s-162.167 -102 -277.5 -102c-92 0 -169.667 22.333 -233 67zM409.999 148.999c51.333 0 91.832 18.333 121.499 55s44.5 87 44.5 151v8c0 36 -5.33301 69 -16 99l-260 -273c28.667 -26.667 65.334 -40 110.001 -40zM242.998 353.999
c0 -36 4.33301 -66.667 13 -92l255 270c-27.333 22 -61.333 33 -102 33c-51.333 0 -91.833 -17.667 -121.5 -53s-44.5 -85.333 -44.5 -150v-8zM332.998 758.999l51 146h187l-103 -146h-135z" />
    <glyph glyph-name="oslashacute" unicode="&#x1ff;" horiz-adv-x="622" 
d="M73 -39l-51.998 47.999l66 70c-41.333 46.667 -62 105.334 -62 176.001v8c0 82.667 27.167 149 81.5 199s122.833 75 205.5 75c61.333 0 115.666 -14.333 162.999 -43l65 69l52 -48l-62 -66c44.667 -48.667 67 -109 67 -181v-8c0 -83.333 -27 -149.5 -81 -198.5
s-122.333 -73.5 -205 -73.5c-64.667 0 -121.334 15 -170.001 45zM241.002 582.999l53 166h180l-105 -166h-128zM312.002 119.999c34 0 60 12 78 36s27 58 27 102v8c0 20.667 -2 39 -6 55l-167 -178c17.333 -15.333 40 -23 68 -23zM206.002 259.999
c0 -20 1.33203 -36.333 3.99902 -49l163 174c-15.333 12.667 -35.666 19 -60.999 19c-34 0 -60.167 -11.667 -78.5 -35s-27.5 -57 -27.5 -101v-8z" />
    <glyph glyph-name="Scommaaccent" unicode="&#x218;" horiz-adv-x="651" 
d="M306 -232l-101 27l42 177l158 -19zM331 -12c-99.333 0 -174.668 20.332 -226.001 60.999s-78.666 100 -81.999 178h195c2.66699 -29.333 12.334 -52.166 29.001 -68.499s44.667 -24.5 84 -24.5c28.667 0 51.167 6.5 67.5 19.5s24.5 30.167 24.5 51.5
s-7.66699 36.5 -23 45.5s-45.333 16.833 -90 23.5c-100.667 12 -170.834 34.833 -210.501 68.5s-59.5 86.834 -59.5 159.501c0 65.333 25.167 118.833 75.5 160.5s117.5 62.5 201.5 62.5c175.333 0 269.333 -74.333 282 -223h-190c-7.33301 51.333 -38 77 -92 77
c-26.667 0 -47.167 -5.5 -61.5 -16.5s-21.5 -25.833 -21.5 -44.5c0 -20.667 7.66699 -36 23 -46s44.666 -18 87.999 -24c96 -10.667 165.667 -31.834 209 -63.501s65 -84.5 65 -158.5c0 -68 -25.667 -124.667 -77 -170s-121.666 -68 -210.999 -68z" />
    <glyph glyph-name="scommaaccent" unicode="&#x219;" horiz-adv-x="515" 
d="M239 -232l-101 27l42 177l158 -19zM257 -12c-74.667 0 -132.833 15.166 -174.5 45.499s-63.5 74.5 -65.5 132.5h165c3.33301 -20 10.333 -34.833 21 -44.5s28.334 -14.5 53.001 -14.5c42.667 0 64 14.333 64 43c0 12.667 -7.16699 22.334 -21.5 29.001
s-39.5 12.667 -75.5 18c-71.333 9.33301 -122.333 26.333 -153 51s-46 63.667 -46 117c0 55.333 21.333 97.833 64 127.5s96 44.5 160 44.5c143.333 0 220.333 -56.333 231 -169h-162c-6.66699 34.667 -29 52 -67 52c-18.667 0 -33.167 -3.66699 -43.5 -11
s-15.5 -17.333 -15.5 -30c0 -12 6.5 -21.167 19.5 -27.5s35.833 -11.5 68.5 -15.5c76 -9.33301 130.833 -26.166 164.5 -50.499s50.5 -63.5 50.5 -117.5c0 -60.667 -20.833 -105.834 -62.5 -135.501s-99.834 -44.5 -174.501 -44.5z" />
    <glyph glyph-name="uni0237" unicode="&#x237;" horiz-adv-x="295" 
d="M-6 -184v130c22 1.33301 38.167 7 48.5 17s15.5 25 15.5 45v515h178v-519c0 -61.333 -18 -108 -54 -140s-98.667 -48 -188 -48z" />
    <glyph glyph-name="circumflex" unicode="&#x2c6;" horiz-adv-x="400" 
d="M15 585l123 163h128l118 -163h-125l-61 56l-60 -56h-123z" />
    <glyph glyph-name="caron" unicode="&#x2c7;" horiz-adv-x="400" 
d="M134 585l-119 163h125l61 -56l61 56h122l-123 -163h-127z" />
    <glyph glyph-name="breve" unicode="&#x2d8;" horiz-adv-x="400" 
d="M199 587c-48 0 -86.499 13.833 -115.499 41.5s-44.833 66.5 -47.5 116.5h111c3.33301 -32 20.666 -48 51.999 -48c32.667 0 50.667 16 54 48h111c-2.66699 -50 -19 -88.833 -49 -116.5s-68.667 -41.5 -116 -41.5z" />
    <glyph glyph-name="dotaccent" unicode="&#x2d9;" horiz-adv-x="400" 
d="M200 579c-27.333 0 -50.166 8.5 -68.499 25.5s-27.5 38.5 -27.5 64.5c0 25.333 9.16699 46.5 27.5 63.5s41.166 25.5 68.499 25.5s50 -8.5 68 -25.5s27 -38.167 27 -63.5c0 -26 -9 -47.5 -27 -64.5s-40.667 -25.5 -68 -25.5z" />
    <glyph glyph-name="ring" unicode="&#x2da;" horiz-adv-x="400" 
d="M200 642c13.333 0 24.333 4.66699 33 14s13 21.333 13 36s-4.33301 26.667 -13 36s-19.667 14 -33 14s-24.333 -4.66699 -33 -14s-13 -21.333 -13 -36s4.33301 -26.667 13 -36s19.667 -14 33 -14zM200 578c-32.667 0 -60.5 11.167 -83.5 33.5s-34.5 49.166 -34.5 80.499
s11.5 58.333 34.5 81s50.833 34 83.5 34s60.5 -11.333 83.5 -34s34.5 -49.667 34.5 -81s-11.5 -58.166 -34.5 -80.499s-50.833 -33.5 -83.5 -33.5z" />
    <glyph glyph-name="ogonek" unicode="&#x2db;" horiz-adv-x="400" 
d="M199 -182c-34 0 -62 7 -84 21s-33 33.333 -33 58c0 42 28.667 76.333 86 103h102c-28 -22 -42 -43 -42 -63c0 -18.667 10 -28 30 -28c11.333 0 21.333 1.66699 30 5v-80c-24 -10.667 -53.667 -16 -89 -16z" />
    <glyph glyph-name="tilde" unicode="&#x2dc;" horiz-adv-x="400" 
d="M264 587c-20.667 0 -43.335 5.50098 -68.002 16.501s-41 16.5 -49 16.5c-17.333 0 -27.666 -10.667 -30.999 -32h-97c3.33301 51.333 15.333 90.166 36 116.499s47 39.5 79 39.5c20 0 42.5 -5.66699 67.5 -17s42.167 -17 51.5 -17c16.667 0 27.334 10.667 32.001 32h97
c-4 -50 -16.833 -88.333 -38.5 -115s-48.167 -40 -79.5 -40z" />
    <glyph glyph-name="hungarumlaut" unicode="&#x2dd;" horiz-adv-x="400" 
d="M54 583l44 166h140l-77 -166h-107zM232 583l43 166h140l-77 -166h-106z" />
    <glyph glyph-name="Wgrave" unicode="&#x1e80;" horiz-adv-x="996" 
d="M442 759l-100 146h186l49 -146h-135zM180 0l-166 715h207l92 -446l96 446h182l104 -450l97 450h190l-167 -715h-214l-110 454l-111 -454h-200z" />
    <glyph glyph-name="wgrave" unicode="&#x1e81;" horiz-adv-x="845" 
d="M167 0l-158 523h187l76 -313l88 313h144l78 -313l85 313h170l-166 -523h-171l-78 292l-81 -292h-174zM372 583l-105 166h180l53 -166h-128z" />
    <glyph glyph-name="Wacute" unicode="&#x1e82;" horiz-adv-x="996" 
d="M430 759l51 146h187l-103 -146h-135zM180 0l-166 715h207l92 -446l96 446h182l104 -450l97 450h190l-167 -715h-214l-110 454l-111 -454h-200z" />
    <glyph glyph-name="wacute" unicode="&#x1e83;" horiz-adv-x="845" 
d="M368 583l53 166h180l-105 -166h-128zM167 0l-158 523h187l76 -313l88 313h144l78 -313l85 313h170l-166 -523h-171l-78 292l-81 -292h-174z" />
    <glyph glyph-name="Wdieresis" unicode="&#x1e84;" horiz-adv-x="996" 
d="M389 758c-23.333 0 -43.333 8.16699 -60 24.5s-25 35.833 -25 58.5c0 23.333 8.33301 43.166 25 59.499s36.667 24.5 60 24.5c24 0 44.333 -8.16699 61 -24.5s25 -36.166 25 -59.499s-8.33301 -43 -25 -59s-37 -24 -61 -24zM612 758c-24 0 -44.167 8 -60.5 24
s-24.5 35.667 -24.5 59s8.16699 43.166 24.5 59.499s36.5 24.5 60.5 24.5s44.333 -8.16699 61 -24.5s25 -36.166 25 -59.499s-8.33301 -43 -25 -59s-37 -24 -61 -24zM180 0l-166 715h207l92 -446l96 446h182l104 -450l97 450h190l-167 -715h-214l-110 454l-111 -454h-200z
" />
    <glyph glyph-name="wdieresis" unicode="&#x1e85;" horiz-adv-x="845" 
d="M324 580c-23.333 0 -43.333 8.16699 -60 24.5s-25 35.833 -25 58.5c0 23.333 8.33301 43.166 25 59.499s36.667 24.5 60 24.5c24 0 44.333 -8.16699 61 -24.5s25 -36.166 25 -59.499s-8.33301 -43 -25 -59s-37 -24 -61 -24zM537 580c-24 0 -44.167 8 -60.5 24
s-24.5 35.667 -24.5 59s8.16699 43.166 24.5 59.499s36.5 24.5 60.5 24.5s44.333 -8.16699 61 -24.5s25 -36.166 25 -59.499s-8.33301 -43 -25 -59s-37 -24 -61 -24zM167 0l-158 523h187l76 -313l88 313h144l78 -313l85 313h170l-166 -523h-171l-78 292l-81 -292h-174z" />
    <glyph glyph-name="Ygrave" unicode="&#x1ef2;" horiz-adv-x="677" 
d="M241 0v306l-233 409h223l121 -241l121 241h196l-222 -409v-306h-206zM288 759l-100 146h186l49 -146h-135z" />
    <glyph glyph-name="ygrave" unicode="&#x1ef3;" horiz-adv-x="589" 
d="M130 -175l87 228l-209 470h194l108 -279l100 279h171l-280 -698h-171zM245 583l-105 166h180l53 -166h-128z" />
    <glyph glyph-name="uni2009" unicode="&#x2009;" horiz-adv-x="87" 
 />
    <glyph glyph-name="endash" unicode="&#x2013;" horiz-adv-x="541" 
d="M46 240v105h449v-105h-449z" />
    <glyph glyph-name="emdash" unicode="&#x2014;" horiz-adv-x="946" 
d="M46 240v105h855v-105h-855z" />
    <glyph glyph-name="quoteleft" unicode="&#x2018;" horiz-adv-x="310" 
d="M188 428l-158 53l137 247l101 -39z" />
    <glyph glyph-name="quoteright" unicode="&#x2019;" horiz-adv-x="310" 
d="M143 428l-101 39l80 261l158 -53z" />
    <glyph glyph-name="quotesinglbase" unicode="&#x201a;" horiz-adv-x="309" 
d="M140 -106l-101 39l80 261l157 -53z" />
    <glyph glyph-name="quotedblleft" unicode="&#x201c;" horiz-adv-x="536" 
d="M188 428l-158 53l137 247l101 -39zM415 428l-158 53l137 247l101 -39z" />
    <glyph glyph-name="quotedblright" unicode="&#x201d;" horiz-adv-x="536" 
d="M143 428l-101 39l80 261l158 -53zM369 428l-100 39l80 261l158 -53z" />
    <glyph glyph-name="quotedblbase" unicode="&#x201e;" horiz-adv-x="536" 
d="M140 -106l-101 39l80 261l157 -53zM366 -106l-100 39l79 261l159 -53z" />
    <glyph glyph-name="dagger" unicode="&#x2020;" horiz-adv-x="405" 
d="M130 213v259h-107v126h107v117h145v-117h107v-126h-107v-259h-145z" />
    <glyph glyph-name="daggerdbl" unicode="&#x2021;" horiz-adv-x="405" 
d="M130 427v74h-107v114h107v100h145v-100h107v-114h-107v-74h107v-114h-107v-100h-145v100h-107v114h107z" />
    <glyph glyph-name="bullet" unicode="&#x2022;" horiz-adv-x="372" 
d="M186 156c-41.333 0 -76.166 14.3311 -104.499 42.998s-42.5 63.334 -42.5 104.001s14.167 75.167 42.5 103.5s63.166 42.5 104.499 42.5c42 0 76.833 -14.167 104.5 -42.5s41.5 -62.833 41.5 -103.5c0 -41.333 -13.833 -76.166 -41.5 -104.499s-62.5 -42.5 -104.5 -42.5z
" />
    <glyph glyph-name="ellipsis" unicode="&#x2026;" horiz-adv-x="893" 
d="M148 -11c-29.333 0 -53.666 9.83301 -72.999 29.5s-29 43.5 -29 71.5s9.66699 51.833 29 71.5s43.666 29.5 72.999 29.5c30 0 55 -9.83301 75 -29.5s30 -43.5 30 -71.5s-10 -51.833 -30 -71.5s-45 -29.5 -75 -29.5zM445 -11c-29.333 0 -53.666 9.83301 -72.999 29.5
s-29 43.5 -29 71.5s9.66699 51.833 29 71.5s43.666 29.5 72.999 29.5c30 0 55 -9.83301 75 -29.5s30 -43.5 30 -71.5s-10 -51.833 -30 -71.5s-45 -29.5 -75 -29.5zM742 -11c-29.333 0 -53.666 9.83301 -72.999 29.5s-29 43.5 -29 71.5s9.66699 51.833 29 71.5
s43.666 29.5 72.999 29.5c30 0 55 -9.83301 75 -29.5s30 -43.5 30 -71.5s-10 -51.833 -30 -71.5s-45 -29.5 -75 -29.5z" />
    <glyph glyph-name="perthousand" unicode="&#x2030;" horiz-adv-x="1222" 
d="M213 472c18 0 31.833 6.66797 41.5 20.001s14.5 31.666 14.5 54.999s-4.83301 41.5 -14.5 54.5s-23.5 19.5 -41.5 19.5s-32 -6.5 -42 -19.5s-15 -30.833 -15 -53.5c0 -24 5 -42.667 15 -56s24 -20 42 -20zM212 368.001c-57.333 0 -102.833 16.833 -136.5 50.5
s-50.5 76.5 -50.5 128.5c0 50 18 91.833 54 125.5s80.667 50.5 134 50.5s97.833 -16.333 133.5 -49s53.5 -74 53.5 -124c0 -52.667 -17.167 -96.167 -51.5 -130.5s-79.833 -51.5 -136.5 -51.5zM115 0.000976562l496 715h98l-496 -715h-98zM606 92.001
c18 0 31.833 6.66699 41.5 20s14.5 32 14.5 56c0 22.667 -4.83301 40.5 -14.5 53.5s-23.5 19.5 -41.5 19.5s-32 -6.5 -42 -19.5s-15 -30.833 -15 -53.5c0 -24 5 -42.667 15 -56s24 -20 42 -20zM605 -11.999c-57.333 0 -102.833 16.833 -136.5 50.5s-50.5 76.5 -50.5 128.5
c0 50 18 91.833 54 125.5s80.667 50.5 134 50.5s97.833 -16.333 133.5 -49s53.5 -74 53.5 -124c0 -52.667 -17.167 -96.167 -51.5 -130.5s-79.833 -51.5 -136.5 -51.5zM1010 92.001c18 0 32 6.66699 42 20s15 32 15 56c0 22.667 -5 40.5 -15 53.5s-24 19.5 -42 19.5
c-17.333 0 -31.166 -6.5 -41.499 -19.5s-15.5 -30.833 -15.5 -53.5c0 -24 5.16699 -42.667 15.5 -56s24.166 -20 41.499 -20zM1010 -11.999c-57.333 0 -103 16.833 -137 50.5s-51 76.5 -51 128.5c0 50 18 91.833 54 125.5s80.667 50.5 134 50.5
c54 0 98.833 -16.333 134.5 -49s53.5 -74 53.5 -124c0 -52.667 -17.333 -96.167 -52 -130.5s-80 -51.5 -136 -51.5z" />
    <glyph glyph-name="uni2032" unicode="&#x2032;" horiz-adv-x="250" 
d="M35 440l20 275h169l-63 -275h-126z" />
    <glyph glyph-name="uni2033" unicode="&#x2033;" horiz-adv-x="462" 
d="M35 440l20 275h169l-63 -275h-126zM247 440l21 275h168l-62 -275h-127z" />
    <glyph glyph-name="guilsinglleft" unicode="&#x2039;" horiz-adv-x="307" 
d="M155 70l-124 191l124 191h122l-120 -191l120 -191h-122z" />
    <glyph glyph-name="guilsinglright" unicode="&#x203a;" horiz-adv-x="307" 
d="M30 70l120 191l-120 191h121l125 -191l-125 -191h-121z" />
    <glyph glyph-name="fraction" unicode="&#x2044;" horiz-adv-x="168" 
d="M-243 0l560 715h94l-560 -715h-94z" />
    <glyph glyph-name="Euro" unicode="&#x20ac;" horiz-adv-x="720" 
d="M23 381l-0.00292969 71.001h63c12.667 82 46.667 148 102 198s125 75 209 75c86.667 0 154.834 -21.833 204.501 -65.5s78.167 -107.834 85.5 -192.501h-189c-9.33301 69.333 -43.666 104 -102.999 104c-60.667 0 -97.667 -39.667 -111 -119h155l-12 -71h-147v-52h138
l-12 -71h-122c11.333 -74.667 48.666 -112 111.999 -112c32.667 0 57.667 9.5 75 28.5s28.333 48.167 33 87.5h188c-21.333 -182.667 -121.666 -274 -300.999 -274c-88 0 -158.167 24.5 -210.5 73.5s-84.166 114.5 -95.499 196.5h-62v71h58v52h-58z" />
    <glyph glyph-name="trademark" unicode="&#x2122;" horiz-adv-x="760" 
d="M341 394v321h128l59 -158l60 158h131v-321h-109v183l-72 -183h-33l-71 183v-183h-93zM112 394v237h-83v84h273v-84h-83v-237h-107z" />
    <glyph glyph-name="onethird" unicode="&#x2153;" horiz-adv-x="813" 
d="M621 -7c-107.333 0 -163.331 44.333 -167.998 133h116c3.33301 -27.333 18.333 -41 45 -41c26 0 39 11.333 39 34c0 22 -15 33 -45 33h-30v74h30c30 0 45 11.333 45 34c0 20 -11.333 30 -34 30c-24 0 -38 -12.667 -42 -38h-116
c3.33301 38.667 18.666 69.834 45.999 93.501s65.666 35.5 114.999 35.5s87.666 -9.33301 114.999 -28s41 -44.334 41 -77.001c0 -42 -22.667 -68.667 -68 -80c22.667 -3.33301 41 -12.333 55 -27s21 -33 21 -55c0 -37.333 -14.167 -66.833 -42.5 -88.5
s-69.166 -32.5 -122.499 -32.5zM105.002 339v248l-82 -46v107l102 67h114v-376h-134zM58.002 0l560 715h94l-560 -715h-94z" />
    <glyph glyph-name="twothirds" unicode="&#x2154;" horiz-adv-x="860" 
d="M669 -7c-107.333 0 -163.331 44.333 -167.998 133h116c3.33301 -27.333 18.333 -41 45 -41c26 0 39 11.333 39 34c0 22 -15 33 -45 33h-30v74h30c30 0 45 11.333 45 34c0 20 -11.333 30 -34 30c-24 0 -38 -12.667 -42 -38h-116
c3.33301 38.667 18.666 69.834 45.999 93.501s65.666 35.5 114.999 35.5s87.666 -9.33301 114.999 -28s41 -44.334 41 -77.001c0 -42 -22.667 -68.667 -68 -80c22.667 -3.33301 41 -12.333 55 -27s21 -33 21 -55c0 -37.333 -14.167 -66.833 -42.5 -88.5
s-69.166 -32.5 -122.499 -32.5zM8.00195 339l0.000976562 16.999l128 133c24 24.667 41.333 44.334 52 59.001s16 29 16 43c0 21.333 -10.333 32 -31 32c-22.667 0 -36 -17.333 -40 -52h-120c1.33301 48 16.666 84.833 45.999 110.5s69.333 38.5 120 38.5
s89.167 -11 115.5 -33s39.5 -51 39.5 -87c0 -41.333 -25.667 -85.333 -77 -132l-35 -34h113v-95h-327zM121.003 -0.000976562l560 715h94l-560 -715h-94z" />
    <glyph glyph-name="oneeighth" unicode="&#x215b;" horiz-adv-x="807" 
d="M613 -7c-55.333 0 -97.668 9.50098 -127.001 28.501s-44 46.833 -44 83.5c0 46 23 76.333 69 91c-35.333 15.333 -53 41 -53 77c0 33.333 14.833 59.666 44.5 78.999s66.834 29 111.501 29c46.667 0 84.334 -9.33301 113.001 -28s43 -45.334 43 -80.001
c0 -36 -17.667 -61.333 -53 -76c44.667 -13.333 67 -42.666 67 -87.999c0 -36.667 -14.833 -65.167 -44.5 -85.5s-71.834 -30.5 -126.501 -30.5zM613.998 81.001c11.333 0 21 3.66895 29 11.002s12 16.666 12 27.999s-3.83301 20.666 -11.5 27.999s-17.5 11 -29.5 11
s-22 -3.5 -30 -10.5s-12 -16.5 -12 -28.5s4 -21.5 12 -28.5s18 -10.5 30 -10.5zM613.998 227.003c10.667 0 19.5 3.16699 26.5 9.5s10.5 14.833 10.5 25.5c0 10 -3.5 18.167 -10.5 24.5s-15.833 9.5 -26.5 9.5c-10 0 -18.667 -3.33301 -26 -10s-11 -15 -11 -25
s3.66699 -18.167 11 -24.5s16 -9.5 26 -9.5zM104.998 339.003v248l-82 -46v107l102 67h114v-376h-134zM48.998 0.00292969l560 715h94l-560 -715h-94z" />
    <glyph glyph-name="threeeighths" unicode="&#x215c;" horiz-adv-x="847" 
d="M653 -7c-55.333 0 -97.668 9.50098 -127.001 28.501s-44 46.833 -44 83.5c0 46 23 76.333 69 91c-35.333 15.333 -53 41 -53 77c0 33.333 14.833 59.666 44.5 78.999s66.834 29 111.501 29c46.667 0 84.334 -9.33301 113.001 -28s43 -45.334 43 -80.001
c0 -36 -17.667 -61.333 -53 -76c44.667 -13.333 67 -42.666 67 -87.999c0 -36.667 -14.833 -65.167 -44.5 -85.5s-71.834 -30.5 -126.501 -30.5zM653.998 81.001c11.333 0 21 3.66895 29 11.002s12 16.666 12 27.999s-3.83301 20.666 -11.5 27.999s-17.5 11 -29.5 11
s-22 -3.5 -30 -10.5s-12 -16.5 -12 -28.5s4 -21.5 12 -28.5s18 -10.5 30 -10.5zM653.998 227.003c10.667 0 19.5 3.16699 26.5 9.5s10.5 14.833 10.5 25.5c0 10 -3.5 18.167 -10.5 24.5s-15.833 9.5 -26.5 9.5c-10 0 -18.667 -3.33301 -26 -10s-11 -15 -11 -25
s3.66699 -18.167 11 -24.5s16 -9.5 26 -9.5zM100.998 0.00292969l560 715h94l-560 -715h-94zM188.998 332.003c-107.333 0 -163.333 44.668 -168 134.001h116c3.33301 -28 18.333 -42 45 -42c26 0 39 11.333 39 34s-15 34 -45 34h-30v74h30c30 0 45 11.333 45 34
c0 19.333 -11.333 29 -34 29c-24 0 -38 -12.667 -42 -38h-116c3.33301 39.333 18.5 70.666 45.5 93.999s65.5 35 115.5 35c49.333 0 87.666 -9.16699 114.999 -27.5s41 -43.833 41 -76.5c0 -41.333 -22.667 -68.333 -68 -81c22.667 -3.33301 41 -12.333 55 -27
s21 -33 21 -55c0 -37.333 -14.167 -66.833 -42.5 -88.5s-69.166 -32.5 -122.499 -32.5z" />
    <glyph glyph-name="fiveeighths" unicode="&#x215d;" horiz-adv-x="833" 
d="M639 -7c-55.333 0 -97.668 9.50098 -127.001 28.501s-44 46.833 -44 83.5c0 46 23 76.333 69 91c-35.333 15.333 -53 41 -53 77c0 33.333 14.833 59.666 44.5 78.999s66.834 29 111.501 29c46.667 0 84.334 -9.33301 113.001 -28s43 -45.334 43 -80.001
c0 -36 -17.667 -61.333 -53 -76c44.667 -13.333 67 -42.666 67 -87.999c0 -36.667 -14.833 -65.167 -44.5 -85.5s-71.834 -30.5 -126.501 -30.5zM639.998 81.001c11.333 0 21 3.66895 29 11.002s12 16.666 12 27.999s-3.83301 20.666 -11.5 27.999s-17.5 11 -29.5 11
s-22 -3.5 -30 -10.5s-12 -16.5 -12 -28.5s4 -21.5 12 -28.5s18 -10.5 30 -10.5zM639.998 227.003c10.667 0 19.5 3.16699 26.5 9.5s10.5 14.833 10.5 25.5c0 10 -3.5 18.167 -10.5 24.5s-15.833 9.5 -26.5 9.5c-10 0 -18.667 -3.33301 -26 -10s-11 -15 -11 -25
s3.66699 -18.167 11 -24.5s16 -9.5 26 -9.5zM181.998 332.003c-52.667 0 -92.168 11.5 -118.501 34.5s-40.166 53.5 -41.499 91.5h120c3.33301 -19.333 16 -29 38 -29c23.333 0 35 13.667 35 41c0 26.667 -12.667 40 -38 40c-20 0 -33.667 -8 -41 -24h-102l11 229h281v-93
h-190l-3 -80c21.333 32 54 48 98 48c36 0 64.5 -10.167 85.5 -30.5s31.5 -49.5 31.5 -87.5c0 -43.333 -14.5 -77.5 -43.5 -102.5s-69.833 -37.5 -122.5 -37.5zM85.9971 0.00292969l560 715h94l-560 -715h-94z" />
    <glyph glyph-name="seveneighths" unicode="&#x215e;" horiz-adv-x="802" 
d="M608 -7c-55.333 0 -97.668 9.50098 -127.001 28.501s-44 46.833 -44 83.5c0 46 23 76.333 69 91c-35.333 15.333 -53 41 -53 77c0 33.333 14.833 59.666 44.5 78.999s66.834 29 111.501 29c46.667 0 84.334 -9.33301 113.001 -28s43 -45.334 43 -80.001
c0 -36 -17.667 -61.333 -53 -76c44.667 -13.333 67 -42.666 67 -87.999c0 -36.667 -14.833 -65.167 -44.5 -85.5s-71.834 -30.5 -126.501 -30.5zM608.998 81.001c11.333 0 21 3.66895 29 11.002s12 16.666 12 27.999s-3.83301 20.666 -11.5 27.999s-17.5 11 -29.5 11
s-22 -3.5 -30 -10.5s-12 -16.5 -12 -28.5s4 -21.5 12 -28.5s18 -10.5 30 -10.5zM608.998 227.003c10.667 0 19.5 3.16699 26.5 9.5s10.5 14.833 10.5 25.5c0 10 -3.5 18.167 -10.5 24.5s-15.833 9.5 -26.5 9.5c-10 0 -18.667 -3.33301 -26 -10s-11 -15 -11 -25
s3.66699 -18.167 11 -24.5s16 -9.5 26 -9.5zM67.998 339.003l102 272h-148v104h314v-13l-136 -363h-132zM35.998 0.00292969l560 715h94l-560 -715h-94z" />
    <glyph glyph-name="minus" unicode="&#x2212;" horiz-adv-x="572" 
d="M37 271v138h498v-138h-498z" />
    <glyph glyph-name="approxequal" unicode="&#x2248;" horiz-adv-x="579" 
d="M37 121c4 59.333 18.998 103.833 44.998 133.5s58 44.5 96 44.5c29.333 0 69 -6.66699 119 -20s82 -20 96 -20c26 0 41 14.667 45 44h103c-2.66699 -57.333 -17.167 -101.333 -43.5 -132s-58.166 -46 -95.499 -46c-30 0 -70.167 6.66699 -120.5 20s-82.166 20 -95.499 20
c-26 0 -41 -14.667 -45 -44h-104zM36.998 342c4 59.333 18.998 103.666 44.998 132.999s58 44 96 44c29.333 0 69 -6.66699 119 -20s82 -20 96 -20c26 0 41 14.667 45 44h103c-2.66699 -57.333 -17.167 -101.166 -43.5 -131.499s-58.166 -45.5 -95.499 -45.5
c-30 0 -70.167 6.66699 -120.5 20s-82.166 20 -95.499 20c-25.333 0 -40.333 -14.667 -45 -44h-104z" />
    <glyph glyph-name="notequal" unicode="&#x2260;" horiz-adv-x="557" 
d="M39 363v123h244l37 96h116l-38 -96h120v-123h-167l-29 -74h196v-122h-243l-37 -96h-115l37 96h-121v122h168l28 74h-196z" />
    <glyph glyph-name="lessequal" unicode="&#x2264;" horiz-adv-x="513" 
d="M463 143l-421 225v34l421 226v-160l-166 -82l166 -82v-161zM42 0v118h421v-118h-421z" />
    <glyph glyph-name="greaterequal" unicode="&#x2265;" horiz-adv-x="513" 
d="M49 143v161l166 82l-166 82v160l422 -226v-34zM49 0v118h422v-118h-422z" />
    <glyph glyph-name="uni24C5" unicode="&#x24c5;" horiz-adv-x="843" 
d="M279 158v403h159c110 0 165 -45.667 165 -137v-3c0 -42.667 -13.5 -75.167 -40.5 -97.5s-66.167 -33.5 -117.5 -33.5h-41v-132h-125zM404 375h27c36 0 54 15.333 54 46v3c0 28.667 -17.667 43 -53 43h-28v-92zM420 31c90.667 0 167.168 30.667 229.501 92
s93.5 140 93.5 236c0 95.333 -30.833 173.333 -92.5 234s-137.834 91 -228.501 91c-92 0 -168.667 -30.5 -230 -91.5s-92 -139.5 -92 -235.5s31 -174.333 93 -235s137.667 -91 227 -91zM420.001 -20c-106.667 0 -197.168 36.168 -271.501 108.501
s-111.5 161.833 -111.5 268.5c0 105.333 37.333 194.666 112 267.999s165.667 110 273 110c108.667 0 199.834 -36.333 273.501 -109s110.5 -161.667 110.5 -267c0 -107.333 -37.167 -197.333 -111.5 -270s-165.833 -109 -274.5 -109z" />
    <glyph glyph-name="f_i" unicode="&#xfb01;" horiz-adv-x="675" 
d="M437 0v523h179v-523h-179zM526 573c-28 0 -51.333 8.66699 -70 26s-28 39.333 -28 66s9.33301 48.834 28 66.501s42 26.5 70 26.5s51.5 -8.83301 70.5 -26.5s28.5 -39.834 28.5 -66.501s-9.5 -48.667 -28.5 -66s-42.5 -26 -70.5 -26zM80 0l0.000976562 401.001h-66v122
h66v46c0 63.333 18.167 111.166 54.5 143.499s86.166 48.5 149.499 48.5c28 0 54.667 -3.33301 80 -10v-131c-13.333 4 -29 6 -47 6c-39.333 0 -59 -19 -59 -57v-46h106v-122h-106v-401h-178z" />
    <glyph glyph-name="f_l" unicode="&#xfb02;" horiz-adv-x="673" 
d="M80 0l0.000976562 401.001h-66v122h66v46c0 63.333 18.167 111.166 54.5 143.499s86.166 48.5 149.499 48.5c28 0 54.667 -3.33301 80 -10v-131c-13.333 4 -29 6 -47 6c-39.333 0 -59 -19 -59 -57v-46h106v-122h-106v-401h-178zM437.001 0.000976562v753h178v-753h-178z
" />
    <glyph glyph-name=".null" horiz-adv-x="0" 
 />
    <glyph glyph-name="nonmarkingreturn" horiz-adv-x="333" 
 />
    <glyph glyph-name="space_uni0326" horiz-adv-x="400" 
d="M197 -232l-101 27l42 177l158 -19z" />
    <glyph glyph-name="caron.alt" horiz-adv-x="400" 
d="M150 579l9 174h133l-49 -174h-93z" />
    <glyph glyph-name="space_uni0326.alt" horiz-adv-x="400" 
d="M275 566l-158 19l99 185l101 -27z" />
    <glyph glyph-name="grave.uc" horiz-adv-x="400" 
d="M143 759l-100 146h186l49 -146h-135z" />
    <glyph glyph-name="dieresis.uc" horiz-adv-x="400" 
d="M88 758c-23.333 0 -43.333 8.16699 -60 24.5s-25 35.833 -25 58.5c0 23.333 8.33301 43.166 25 59.499s36.667 24.5 60 24.5c24 0 44.333 -8.16699 61 -24.5s25 -36.166 25 -59.499s-8.33301 -43 -25 -59s-37 -24 -61 -24zM311 758c-24 0 -44.167 8 -60.5 24
s-24.5 35.667 -24.5 59s8.16699 43.166 24.5 59.499s36.5 24.5 60.5 24.5s44.333 -8.16699 61 -24.5s25 -36.166 25 -59.499s-8.33301 -43 -25 -59s-37 -24 -61 -24z" />
    <glyph glyph-name="macron.uc" horiz-adv-x="400" 
d="M39 771v107h322v-107h-322z" />
    <glyph glyph-name="acute.uc" horiz-adv-x="400" 
d="M122 759l51 146h187l-103 -146h-135z" />
    <glyph glyph-name="circumflex.uc" horiz-adv-x="400" 
d="M13 759l114 146h150l110 -146h-130l-59 49l-58 -49h-127z" />
    <glyph glyph-name="caron.uc" horiz-adv-x="400" 
d="M122 759l-110 146h130l58 -49l59 49h127l-114 -146h-150z" />
    <glyph glyph-name="breve.uc" horiz-adv-x="400" 
d="M199 752c-48.667 0 -87.499 13.499 -116.499 40.499s-45.167 64.5 -48.5 112.5h116c3.33301 -30.667 19.666 -46 48.999 -46c30 0 47.333 15.333 52 46h115c-4 -47.333 -21 -84.666 -51 -111.999s-68.667 -41 -116 -41z" />
    <glyph glyph-name="dotaccent.uc" horiz-adv-x="400" 
d="M200 757c-27.333 0 -50 8.5 -68 25.5s-27 38.5 -27 64.5c0 25.333 9 46.5 27 63.5s40.667 25.5 68 25.5s50 -8.5 68 -25.5s27 -38.167 27 -63.5c0 -26 -9 -47.5 -27 -64.5s-40.667 -25.5 -68 -25.5z" />
    <glyph glyph-name="ring.uc" horiz-adv-x="400" 
d="M200 810c13.333 0 24.333 4.66504 33 13.998s13 21.333 13 36s-4.33301 26.834 -13 36.501s-19.667 14.5 -33 14.5c-14 0 -25.167 -4.66699 -33.5 -14s-12.5 -21.666 -12.5 -36.999c0 -14.667 4.16699 -26.667 12.5 -36s19.5 -14 33.5 -14zM200 743.998
c-32.667 0 -60.8301 11.5 -84.4971 34.5s-35.5 50.167 -35.5 81.5c0 32 11.667 59.333 35 82s51.666 34 84.999 34s61.666 -11.333 84.999 -34s35 -50 35 -82c0 -31.333 -11.833 -58.5 -35.5 -81.5s-51.834 -34.5 -84.501 -34.5z" />
    <glyph glyph-name="tilde.uc" horiz-adv-x="400" 
d="M265 758c-21.333 0 -44.6699 5.66699 -70.0029 17s-42 17 -50 17s-14.833 -3 -20.5 -9s-9.16699 -14 -10.5 -24h-102c3.33301 50 16.333 88 39 114s50.334 39 83.001 39c20 0 42.833 -5.5 68.5 -16.5s43.167 -16.5 52.5 -16.5c16.667 0 27.334 10.667 32.001 32h101
c-3.33301 -50 -16.666 -88 -39.999 -114s-51 -39 -83 -39z" />
    <glyph glyph-name="hungarumlaut.uc" horiz-adv-x="400" 
d="M39 759l41 146h153l-74 -146h-120zM233 759l41 146h154l-75 -146h-120z" />
    <glyph glyph-name="idotaccent" horiz-adv-x="295" 
d="M147 573c-28 0 -51.333 8.66699 -70 26s-28 39.333 -28 66s9.33301 48.834 28 66.501s42 26.5 70 26.5s51.5 -8.83301 70.5 -26.5s28.5 -39.834 28.5 -66.501s-9.5 -48.667 -28.5 -66s-42.5 -26 -70.5 -26zM58 0v523h179v-523h-179z" />
    <glyph glyph-name="registered.alt" horiz-adv-x="843" 
d="M261 159v402.999h163c111.333 0 167 -43.333 167 -130v-2c0 -51.333 -22.667 -86.666 -68 -105.999l92 -165h-129l-77 139h-24v-139h-124zM385 378.999h32c35.333 0 53 15 53 45v3c0 27.333 -17.333 41 -52 41h-33v-89zM420 30.999c90.667 0 167.168 30.667 229.501 92
s93.5 140 93.5 236c0 95.333 -30.833 173.333 -92.5 234s-137.834 91 -228.501 91c-92 0 -168.667 -30.5 -230 -91.5s-92 -139.5 -92 -235.5s31 -174.333 93 -235s137.667 -91 227 -91zM420.001 -20.001c-106.667 0 -197.168 36.168 -271.501 108.501
s-111.5 161.833 -111.5 268.5c0 105.333 37.333 194.666 112 267.999s165.667 110 273 110c108.667 0 199.834 -36.333 273.501 -109s110.5 -161.667 110.5 -267c0 -107.333 -37.167 -197.333 -111.5 -270s-165.833 -109 -274.5 -109z" />
    <glyph glyph-name="dollar.old" horiz-adv-x="640" 
d="M278 -131l0.000976562 121.001c-80.667 6 -142.334 29.167 -185.001 69.5s-65.667 93.5 -69 159.5h180c6 -50.667 30.667 -80.667 74 -90v141c-84.667 12 -145.5 35 -182.5 69s-55.5 84.333 -55.5 151c0 58.667 21.5 107.334 64.5 146.001s100.833 60.667 173.5 66v87h78
v-88c146 -12.667 224.667 -82.334 236 -209.001h-176c-6.66699 39.333 -26.667 63.333 -60 72v-133c80.667 -12 141.667 -33.833 183 -65.5s62 -80.834 62 -147.501c0 -62.667 -20.667 -115 -62 -157s-102.333 -66 -183 -72v-120h-78zM421.001 197.001
c0 16.667 -4.5 29.333 -13.5 38s-26.167 16 -51.5 22v-129c43.333 9.33301 65 32.333 65 69zM214.001 504c0 -17.333 4.5 -30.5 13.5 -39.5s25.833 -16.167 50.5 -21.5v123c-42.667 -8 -64 -28.667 -64 -62z" />
    <glyph glyph-name="Euro.old" horiz-adv-x="698" 
d="M22 369v68.999h62c12 79.333 44.833 143.333 98.5 192s121.167 73 202.5 73c84 0 150.167 -21.167 198.5 -63.5s75.833 -104.166 82.5 -185.499h-183c-8 66 -41.333 99 -100 99c-60 0 -96 -38.333 -108 -115h152l-13 -69h-143v-49h134l-11 -69h-119
c11.333 -73.333 47.666 -110 108.999 -110c32 0 56.333 9.33301 73 28s27.334 47 32.001 85h182c-10 -85.333 -39.167 -151 -87.5 -197s-116.5 -69 -204.5 -69c-84.667 0 -152.5 23.833 -203.5 71.5s-81.833 111.5 -92.5 191.5h-61v69h57v49h-57z" />
    <glyph glyph-name="sterling.old" horiz-adv-x="651" 
d="M33 278l0.00195312 117h50c-8 30 -12 58.667 -12 86c0 69.333 25 123.666 75 162.999s114 59 192 59c86.667 0 151.667 -20.667 195 -62s66.666 -98.666 69.999 -171.999h-181c-4 29.333 -12.167 50.666 -24.5 63.999s-30.166 20 -53.499 20s-41.833 -7.33301 -55.5 -22
s-20.5 -35 -20.5 -61c0 -20.667 2.33301 -45.667 7 -75h171v-117h-152c2.66699 -24 4 -42 4 -54c0 -19.333 -3.33301 -38.333 -10 -57c45.333 -14.667 74.666 -22 87.999 -22c38.667 0 59 19.333 61 58h179c-2.66699 -63.333 -21.5 -114.5 -56.5 -153.5
s-83.167 -58.5 -144.5 -58.5c-36.667 0 -77 8.5 -121 25.5s-71.667 25.5 -83 25.5c-28 0 -43.667 -14 -47 -42h-147c2.66699 39.333 12.667 74.333 30 105s41.666 52.667 72.999 66c5.33301 14.667 8 32.334 8 53.001c0 16.667 -2.66699 34.667 -8 54h-87z" />
    <glyph glyph-name="yen.old" horiz-adv-x="627" 
d="M62 286v69h133l-185 339h216l100 -227l100 227h190l-175 -339h134v-69h-156v-51h156v-69h-156v-166h-200v166h-157v69h157v51h-157z" />
    <glyph glyph-name="zero.old" horiz-adv-x="674" 
d="M338 134c75.333 0 113 55.333 113 166v22c0 109.333 -38 164 -114 164s-114 -54.333 -114 -163v-23c0 -110.667 38.333 -166 115 -166zM335 -12c-92 0 -165.832 27.333 -221.499 82s-83.5 130.334 -83.5 227.001v23c0 96 28.667 171.833 86 227.5s131 83.5 221 83.5
c90.667 0 164.5 -26.833 221.5 -80.5s85.5 -128.834 85.5 -225.501v-23c0 -97.333 -28.333 -174 -85 -230s-131.334 -84 -224.001 -84z" />
    <glyph glyph-name="one.old" horiz-adv-x="435" 
d="M165 0v430l-133 -81v161l158 109h165v-619h-190z" />
    <glyph glyph-name="two.old" horiz-adv-x="586" 
d="M11 0v26.998l227 218c42 40.667 72.333 73.5 91 98.5s28 50.167 28 75.5c0 20.667 -6.16699 37.167 -18.5 49.5s-30.166 18.5 -53.499 18.5c-51.333 0 -81 -34.667 -89 -104h-172c3.33301 77.333 29.166 138 77.499 182s113.5 66 195.5 66
c78.667 0 140.167 -18 184.5 -54s66.5 -83.667 66.5 -143c0 -39.333 -11.167 -75.666 -33.5 -108.999s-56.833 -71.666 -103.5 -114.999l-77 -71h220v-139h-543z" />
    <glyph glyph-name="three.old" horiz-adv-x="620" 
d="M313 -104c-94 0 -165 21.3311 -213 63.998s-73.667 102.334 -77 179.001h174c5.33301 -67.333 40.666 -101 105.999 -101c32 0 56.167 7.83301 72.5 23.5s24.5 37.167 24.5 64.5c0 56.667 -34 85 -102 85h-58v121h54c65.333 0 98 27.667 98 83
c0 24 -6.83301 42.833 -20.5 56.5s-33.167 20.5 -58.5 20.5c-28 0 -50.667 -8.5 -68 -25.5s-27.666 -40.5 -30.999 -70.5h-173c4 70 29.833 126.667 77.5 170s114.5 65 200.5 65c79.333 0 141.5 -17.667 186.5 -53s67.5 -82.666 67.5 -141.999
c0 -75.333 -39.333 -127.333 -118 -156c90 -22 135 -77.333 135 -166c0 -65.333 -24 -118 -72 -158s-116.333 -60 -205 -60z" />
    <glyph glyph-name="four.old" horiz-adv-x="669" 
d="M365 -92v132h-351v65l302 514h239v-451h93v-128h-93v-132h-190zM200 168h170v306z" />
    <glyph glyph-name="five.old" horiz-adv-x="613" 
d="M300 -104c-88 0 -155.502 21 -202.502 63s-71.833 97.333 -74.5 166h178c4 -27.333 13.167 -48.333 27.5 -63s37.5 -22 69.5 -22c28.667 0 51.5 9.83301 68.5 29.5s25.5 44.834 25.5 75.501c0 31.333 -9.33301 56 -28 74s-43.667 27 -75 27
c-51.333 0 -90.666 -17.333 -117.999 -52h-118l15 425h472v-148h-331l-5 -167c36.667 48.667 92.334 73 167.001 73c63.333 0 114.5 -20.333 153.5 -61s58.5 -97.334 58.5 -170.001c0 -76.667 -25.167 -137.5 -75.5 -182.5s-119.5 -67.5 -207.5 -67.5z" />
    <glyph glyph-name="six.old" horiz-adv-x="651" 
d="M336 -12c-104 0 -180.332 30.334 -228.999 91.001s-73 143.667 -73 249v34c0 113.333 28.833 202.166 86.5 266.499s133.167 96.5 226.5 96.5c77.333 0 138.166 -17.667 182.499 -53s70.166 -87 77.499 -155h-181c-8 42 -34.333 63 -79 63c-76 0 -116 -70 -120 -210
c36.667 57.333 91 86 163 86c66.667 0 121.834 -19.667 165.501 -59s65.5 -94.333 65.5 -165c0 -74 -25.5 -133.167 -76.5 -177.5s-120.5 -66.5 -208.5 -66.5zM335.001 127.001c29.333 0 53 9.66602 71 28.999s27 44 27 74c0 30.667 -8.83301 55.5 -26.5 74.5
s-41.167 28.5 -70.5 28.5c-30 0 -54.167 -9.5 -72.5 -28.5s-27.5 -43.167 -27.5 -72.5c0 -31.333 9 -56.666 27 -75.999s42 -29 72 -29z" />
    <glyph glyph-name="seven.old" horiz-adv-x="571" 
d="M97 -92l214 554h-290v157h540v-22l-260 -689h-204z" />
    <glyph glyph-name="eight.old" horiz-adv-x="639" 
d="M319 -12c-88.667 0 -159.166 18.499 -211.499 55.499s-78.5 89.5 -78.5 157.5c0 40.667 12 76 36 106s57 52.667 99 68c-70.667 31.333 -106 81 -106 149c0 62.667 25.167 111.834 75.5 147.501s112.833 53.5 187.5 53.5c76 0 138.667 -17.667 188 -53
s74 -84.333 74 -147c0 -67.333 -35.333 -117 -106 -149c42 -14.667 74.667 -36.667 98 -66s35 -64 35 -104c0 -68 -26.333 -121.333 -79 -160s-123.334 -58 -212.001 -58zM320.001 126.999c29.333 0 53.166 8.50098 71.499 25.501s27.5 39.5 27.5 67.5
s-9.16699 50.333 -27.5 67s-42.166 25 -71.499 25s-53.166 -8.16699 -71.499 -24.5s-27.5 -38.833 -27.5 -67.5s9.16699 -51.334 27.5 -68.001s42.166 -25 71.499 -25zM321.001 429c25.333 0 46 7.33301 62 22s24 34.667 24 60c0 24 -8.16699 43.5 -24.5 58.5
s-36.833 22.5 -61.5 22.5c-24 0 -44.333 -7.5 -61 -22.5s-25 -34.5 -25 -58.5s8.33301 -43.667 25 -59s37 -23 61 -23z" />
    <glyph glyph-name="nine.old" horiz-adv-x="651" 
d="M305 -106c-79.333 0 -142.17 18.9971 -188.503 56.9971s-72.833 90.667 -79.5 158h180c10.667 -46.667 40.334 -70 89.001 -70c40.667 0 69.834 15.833 87.501 47.5s27.834 85.834 30.501 162.501c-36 -56.667 -90.667 -85 -164 -85c-66 0 -121 19.333 -165 58
s-66 92.334 -66 161.001c0 75.333 25.5 135.5 76.5 180.5s120.833 67.5 209.5 67.5c201.333 0 302 -115.333 302 -346v-31c0 -113.333 -27 -201.666 -81 -264.999s-131 -95 -231 -95zM314.996 285.997c29.333 0 53.167 9.66797 71.5 29.001s27.5 43.666 27.5 72.999
c0 30.667 -9 55.667 -27 75s-42 29 -72 29c-29.333 0 -52.833 -9.66699 -70.5 -29s-26.5 -44 -26.5 -74s8.83301 -54.667 26.5 -74s41.167 -29 70.5 -29z" />
    <glyph glyph-name="dollar.tab" 
d="M264 -135l-0.000976562 125c-79.333 6 -140 29.833 -182 71.5s-64.667 96.5 -68 164.5h176c4.66699 -52.667 29.334 -83.667 74.001 -93v145c-83.333 12.667 -143.333 36.5 -180 71.5s-55 86.833 -55 155.5c0 60.667 21.167 111 63.5 151s99.5 62.667 171.5 68v89h76v-90
c142 -12.667 218.667 -84.667 230 -216h-172c-6.66699 40.667 -26 65.334 -58 74.001v-137c78.667 -12 138.167 -34.333 178.5 -67s60.5 -83.334 60.5 -152.001c0 -64.667 -20.167 -118.5 -60.5 -161.5s-99.833 -67.5 -178.5 -73.5v-125h-76zM199.999 520
c0 -18 4.5 -31.833 13.5 -41.5s25.833 -17.167 50.5 -22.5v128c-42.667 -8 -64 -29.333 -64 -64zM401.999 203c0 17.333 -4.33301 30.5 -13 39.5s-25 16.5 -49 22.5v-133c41.333 10 62 33.667 62 71z" />
    <glyph glyph-name="Euro.tab" 
d="M12 382l-0.00195312 71.001h47c3.33301 85.333 29.166 152 77.499 200s110.5 72 186.5 72c154.667 0 235.667 -80.333 243 -241h-166c-3.33301 33.333 -10.666 57.166 -21.999 71.499s-29.333 21.5 -54 21.5c-28 0 -49 -10 -63 -30s-21.667 -51.333 -23 -94h145l-12 -71
h-133v-51h124l-13 -72h-111c1.33301 -42 8.83301 -72.667 22.5 -92s35.167 -29 64.5 -29c26.667 0 46.334 7.66699 59.001 23s20.334 41.333 23.001 78h163c-6 -167.333 -90 -251 -252 -251c-77.333 0 -138.833 23.5 -184.5 70.5s-70.5 113.833 -74.5 200.5h-47v72h47v51
h-47z" />
    <glyph glyph-name="sterling.tab" 
d="M31 293v107.999h45c-7.33301 34 -11 65.667 -11 95c0 72.667 23.5 129 70.5 169s107.167 60 180.5 60c82 0 143 -20 183 -60s61.333 -99.333 64 -178h-165c-3.33301 30.667 -10.833 52.334 -22.5 65.001s-28.834 19 -51.501 19c-49.333 0 -74 -28.667 -74 -86
c0 -23.333 2.33301 -51.333 7 -84h161v-108h-144c2.66699 -28 4 -49 4 -63c0 -19.333 -3.33301 -38.333 -10 -57c44.667 -14 72.667 -21 84 -21c38 0 58.333 19 61 57h165c-2 -68 -19.5 -121.333 -52.5 -160s-78.5 -58 -136.5 -58c-34.667 0 -71.667 8.66699 -111 26
s-64.666 26 -75.999 26c-27.333 0 -42 -14.333 -44 -43h-142c6 86 36 143.333 90 172c5.33301 17.333 8 37 8 59c0 20 -2.66699 40.667 -8 62h-75z" />
    <glyph glyph-name="yen.tab" 
d="M55 294v71h139l-174 350h205l88 -213l88 213h179l-170 -350h145v-71h-153v-51h153v-72h-153v-171h-199v171h-148v72h148v51h-148z" />
    <glyph glyph-name="zero.tab" 
d="M303 145c28.667 0 48.334 10.167 59.001 30.5s16 55.5 16 105.5v154c0 48.667 -5.83301 83.5 -17.5 104.5s-31.5 31.5 -59.5 31.5c-28.667 0 -49 -10.667 -61 -32s-18 -56.333 -18 -105v-153c0 -49.333 6.16699 -84.333 18.5 -105s33.166 -31 62.499 -31zM297 -12
c-83.333 0 -148.333 25.166 -195 75.499s-70 122.5 -70 216.5v153c0 93.333 24.5 165.333 73.5 216s113.833 76 194.5 76c81.333 0 146.333 -24.167 195 -72.5s73 -119.833 73 -214.5v-153c0 -95.333 -24 -168.666 -72 -219.999s-114.333 -77 -199 -77z" />
    <glyph glyph-name="one.tab" 
d="M253 0v513l-172 -116v171l197 147h180v-715h-205z" />
    <glyph glyph-name="two.tab" 
d="M23 0l-0.000976562 30.001l222 263c40.667 50 69.667 89.667 87 119s26 58.666 26 87.999c0 48.667 -20.667 73 -62 73c-23.333 0 -40.666 -8.83301 -51.999 -26.5s-18.333 -48.167 -21 -91.5h-187c6.66699 180 96 270 268 270c83.333 0 146.833 -19 190.5 -57
s65.5 -90 65.5 -156c0 -45.333 -12 -88 -36 -128s-59.667 -85.667 -107 -137l-87 -90h229v-157h-536z" />
    <glyph glyph-name="three.tab" 
d="M304 -12c-182.667 0 -276.998 82.667 -282.998 248h179c2 -32.667 10.167 -57.334 24.5 -74.001s37.166 -25 68.499 -25c55.333 0 83 27 83 81c0 54.667 -28.333 82 -85 82h-57v129h55c57.333 0 86 25.667 86 77c0 46.667 -24.333 70 -73 70
c-53.333 0 -82.333 -30.333 -87 -91h-176c3.33301 74.667 28.166 133.334 74.499 176.001s110.5 64 192.5 64c78.667 0 140.167 -17.5 184.5 -52.5s66.5 -82.833 66.5 -143.5c0 -78.667 -38 -130 -114 -154c39.333 -8.66699 70.833 -27.167 94.5 -55.5
s35.5 -63.5 35.5 -105.5c0 -70 -23.333 -125.167 -70 -165.5s-113 -60.5 -199 -60.5z" />
    <glyph glyph-name="four.tab" 
d="M321 0v137h-302v70l256 508h227v-443h72v-135h-72v-137h-181zM183 272h142v287z" />
    <glyph glyph-name="five.tab" 
d="M293 -12c-168.667 0 -256.001 79.667 -262.001 239h176c2 -28 9.33301 -48.5 22 -61.5s33.667 -19.5 63 -19.5c52 0 78 34 78 102c0 30 -8 53.5 -24 70.5s-38.333 25.5 -67 25.5c-46 0 -81.667 -17.333 -107 -52h-118l14 423h453v-151h-310l-5 -161
c34.667 51.333 86 77 154 77c64.667 0 114.834 -20.5 150.501 -61.5s53.5 -97.833 53.5 -170.5c0 -80.667 -23.667 -144.167 -71 -190.5s-114 -69.5 -200 -69.5z" />
    <glyph glyph-name="six.tab" 
d="M313 -12c-95.333 0 -166.167 28.501 -212.5 85.501s-69.5 136.5 -69.5 238.5v65c0 110 26.833 195.5 80.5 256.5s125.167 91.5 214.5 91.5c152.667 0 232.334 -70.333 239.001 -211h-171c-6.66699 44 -29.334 66 -68.001 66c-73.333 0 -110.333 -66 -111 -198
c33.333 54.667 83 82 149 82c61.333 0 111.666 -19.333 150.999 -58s59 -94.334 59 -167.001c0 -76 -23.167 -136.833 -69.5 -182.5s-110.166 -68.5 -191.499 -68.5zM308.999 138.001c26 0 47.333 9 64 27s25 41.333 25 70c0 30 -8.16699 53.833 -24.5 71.5
s-38.166 26.5 -65.499 26.5c-26.667 0 -48.667 -8.5 -66 -25.5s-26 -39.833 -26 -68.5c0 -30.667 8.66699 -55.167 26 -73.5s39.666 -27.5 66.999 -27.5z" />
    <glyph glyph-name="seven.tab" 
d="M111 0l207 553h-279v162h531v-21l-254 -694h-205z" />
    <glyph glyph-name="eight.tab" 
d="M300 -12c-84 0 -150.5 18.501 -199.5 55.501s-73.5 89.833 -73.5 158.5c0 84.667 40 143 120 175c-62 30.667 -93 79.667 -93 147c0 62 23.667 111 71 147s106.333 54 177 54c72 0 131.167 -17.833 177.5 -53.5s69.5 -84.5 69.5 -146.5c0 -68 -31 -117 -93 -147
c78.667 -29.333 118 -86.333 118 -171c0 -68.667 -24.667 -122.334 -74 -161.001s-116 -58 -200 -58zM301 137.001c26.667 0 48.333 7.83301 65 23.5s25 36.834 25 63.501c0 27.333 -8.16699 48.833 -24.5 64.5s-37.833 23.5 -64.5 23.5s-48.5 -7.83301 -65.5 -23.5
s-25.5 -37.167 -25.5 -64.5c0 -26.667 8.5 -47.834 25.5 -63.501s38.5 -23.5 64.5 -23.5zM302.999 430.001c22 0 40.499 7.16602 55.499 21.499s22.5 32.833 22.5 55.5c0 23.333 -7.5 42 -22.5 56s-33.833 21 -56.5 21c-21.333 0 -39.666 -7 -54.999 -21
s-23 -32.333 -23 -55c0 -23.333 7.66699 -42.166 23 -56.499s34 -21.5 56 -21.5z" />
    <glyph glyph-name="nine.tab" 
d="M283 -11c-159.333 0 -243.334 71.332 -252.001 213.999h172c6.66699 -46 32 -69 76 -69c38 0 65.167 15.5 81.5 46.5s24.833 81.167 25.5 150.5c-33.333 -54 -83.333 -81 -150 -81c-61.333 0 -111.666 19 -150.999 57s-59 93.333 -59 166c0 76.667 23.333 138 70 184
s110.667 69 192 69c92.667 0 162.667 -27.833 210 -83.5s71 -135.167 71 -238.5v-73c0 -109.333 -25 -193.666 -75 -252.999s-120.333 -89 -211 -89zM291.999 382.999c27.333 0 49.5 8.33301 66.5 25s25.5 39.334 25.5 68.001c0 31.333 -8.66699 56.166 -26 74.499
s-39.666 27.5 -66.999 27.5c-26 0 -47.333 -9 -64 -27s-25 -41.333 -25 -70c0 -30 8.16699 -53.833 24.5 -71.5s38.166 -26.5 65.499 -26.5z" />
    <glyph glyph-name="cent.tab" 
d="M277 -135v124.999c-74.667 6.66699 -135 32.834 -181 78.501s-69 107.834 -69 186.501v8c0 76.667 23.333 139 70 187s106.667 76 180 84v95h78v-94c62 -6 113.167 -26.833 153.5 -62.5s62.833 -85.834 67.5 -150.501h-164c-5.33301 40 -24.333 66 -57 78v-284
c40.667 12 63 42 67 90h157c-3.33301 -61.333 -24.5 -111 -63.5 -149s-92.5 -60.333 -160.5 -67v-125h-78zM204 256.999c0 -74.667 24.333 -121 73 -139v281c-48.667 -17.333 -73 -62 -73 -134v-8z" />
    <glyph glyph-name="percent.tab" horiz-adv-x="800" 
d="M212 482c35.333 0 53 24.334 53 73.001c0 22 -4.66699 39.5 -14 52.5s-22.333 19.5 -39 19.5s-29.834 -6.33301 -39.501 -19s-14.5 -30.334 -14.5 -53.001c0 -23.333 4.83301 -41.333 14.5 -54s22.834 -19 39.501 -19zM211 383.001c-54 0 -97.167 16.168 -129.5 48.501
s-48.5 73.166 -48.5 122.499c0 48 17.167 88.167 51.5 120.5s76.833 48.5 127.5 48.5s93 -15.667 127 -47s51 -71 51 -119c0 -50 -16.333 -91.5 -49 -124.5s-76 -49.5 -130 -49.5zM111 0.00195312l484 715h97l-483 -715h-98zM589 87.002c35.333 0 53 24.334 53 73.001
c0 22 -4.66699 39.5 -14 52.5s-22.333 19.5 -39 19.5s-29.834 -6.33301 -39.501 -19s-14.5 -30.334 -14.5 -53.001c0 -23.333 4.83301 -41.333 14.5 -54s22.834 -19 39.501 -19zM588 -11.9971c-54.667 0 -98 16.001 -130 48.001s-48 73 -48 123
c0 48 17.167 88.167 51.5 120.5s76.833 48.5 127.5 48.5s93 -15.667 127 -47s51 -71 51 -119c0 -50.667 -16.5 -92.334 -49.5 -125.001s-76.167 -49 -129.5 -49z" />
    <glyph glyph-name="perthousand.tab" horiz-adv-x="1000" 
d="M177 479c26 0 39 26 39 78c0 51.333 -13 77 -39 77c-26.667 0 -40 -25.667 -40 -77c0 -28 3.16699 -48 9.5 -60s16.5 -18 30.5 -18zM176 387c-47.333 0 -84.833 15.333 -112.5 46s-41.5 71.667 -41.5 123c0 50 14.667 90.333 44 121s66.333 46 111 46
s81.5 -14.833 110.5 -44.5s43.5 -69.5 43.5 -119.5c0 -52 -14.167 -93.667 -42.5 -125s-65.833 -47 -112.5 -47zM47 0l483 715h95l-483 -715h-95zM490 80c26 0 39 26 39 78c0 51.333 -13 77 -39 77c-26.667 0 -40 -25.667 -40 -77c0 -52 13.333 -78 40 -78zM490 -12
c-48 0 -85.833 15.333 -113.5 46s-41.5 71.667 -41.5 123c0 50 14.667 90.333 44 121s66.333 46 111 46s81.5 -14.833 110.5 -44.5s43.5 -69.5 43.5 -119.5c0 -52 -14 -93.667 -42 -125s-65.333 -47 -112 -47zM824 80c26 0 39 26 39 78c0 51.333 -13 77 -39 77
c-26.667 0 -40 -25.667 -40 -77c0 -52 13.333 -78 40 -78zM823 -12c-47.333 0 -84.833 15.333 -112.5 46s-41.5 71.667 -41.5 123c0 50 14.667 90.333 44 121s66.333 46 111 46s81.5 -14.833 110.5 -44.5s43.5 -69.5 43.5 -119.5c0 -52 -14.167 -93.667 -42.5 -125
s-65.833 -47 -112.5 -47z" />
    <glyph glyph-name="plus.tab" 
d="M228 90v185h-169v130h169v185h144v-185h169v-130h-169v-185h-144z" />
    <glyph glyph-name="minus.tab" 
d="M58 271v138h484v-138h-484z" />
    <glyph glyph-name="multiply.tab" 
d="M148 90l-94 94l152 152l-155 154l95 96l154 -156l153 153l94 -95l-153 -152l156 -154l-96 -95l-154 155z" />
    <glyph glyph-name="divide.tab" 
d="M300 43c-26 0 -48.167 8.83301 -66.5 26.5s-27.5 39.5 -27.5 65.5c0 25.333 9.16699 47.166 27.5 65.499s40.5 27.5 66.5 27.5s48.167 -9.16699 66.5 -27.5s27.5 -40.166 27.5 -65.499c0 -26 -9.16699 -47.833 -27.5 -65.5s-40.5 -26.5 -66.5 -26.5zM51 278v124h498v-124
h-498zM300 452c-26 0 -48.167 9.16699 -66.5 27.5s-27.5 40.166 -27.5 65.499c0 26 9.16699 47.833 27.5 65.5s40.5 26.5 66.5 26.5s48.167 -8.83301 66.5 -26.5s27.5 -39.5 27.5 -65.5c0 -25.333 -9.16699 -47.166 -27.5 -65.499s-40.5 -27.5 -66.5 -27.5z" />
    <glyph glyph-name="equal.tab" 
d="M67 167v122h466v-122h-466zM67 363v123h466v-123h-466z" />
    <glyph glyph-name="less.tab" 
d="M521 59l-442 246v34l442 246v-162l-204 -100l204 -106v-158z" />
    <glyph glyph-name="greater.tab" 
d="M80 60v163l204 99l-204 106v158l441 -246v-34z" />
    <glyph glyph-name="florin.tab" 
d="M87 293v121h103l18 125c18 124 91.667 186 221 186c26 0 52 -3.66699 78 -11v-134c-16 4.66699 -33 7 -51 7c-40.667 0 -64.667 -21 -72 -63l-16 -110h124v-121h-141l-67 -475h-178l67 475h-86z" />
    <glyph glyph-name="plusminus.tab" 
d="M228 176v165h-175v131h175v164h144v-164h176v-131h-176v-165h-144zM53 0v118h497v-118h-497z" />
    <glyph glyph-name="notequal.tab" 
d="M60 363v123h244l38 96h115l-37 -96h120v-123h-168l-28 -74h196v-122h-243l-37 -96h-116l37 96h-121v122h168l29 74h-197z" />
    <glyph glyph-name="approxequal.tab" 
d="M51 121c3.33301 59.333 18 103.833 44 133.5s58 44.5 96 44.5c29.333 0 68.166 -6.66699 116.499 -20s79.5 -20 93.5 -20c26 0 41 14.667 45 44h103c-2 -56.667 -16.167 -100.5 -42.5 -131.5s-58.166 -46.5 -95.499 -46.5c-30.667 0 -70.167 6.66699 -118.5 20
s-79.5 20 -93.5 20c-26 0 -41 -14.667 -45 -44h-103zM51 342c3.33301 59.333 18 103.668 44 133.001s58 44 96 44c29.333 0 68.166 -6.66699 116.499 -20s79.5 -20 93.5 -20c26 0 41 14.667 45 44h103c-2 -56.667 -16.167 -100.334 -42.5 -131.001s-58.166 -46 -95.499 -46
c-30.667 0 -70.167 6.66699 -118.5 20s-79.5 20 -93.5 20c-25.333 0 -40.333 -14.667 -45 -44h-103z" />
    <glyph glyph-name="lessequal.tab" 
d="M507 143l-421 225v34l421 226v-160l-166 -82l166 -82v-161zM86 0v118h421v-118h-421z" />
    <glyph glyph-name="greaterequal.tab" 
d="M93 143v161l166 82l-166 82v160l421 -226v-34zM93 0v118h421v-118h-421z" />
    <glyph glyph-name="parenleft.tab" horiz-adv-x="300" 
d="M178 -148c-96 139.333 -144 293 -144 461c0 168.667 48 322.667 144 462h127c-75.333 -140 -113 -294 -113 -462c0 -167.333 37.667 -321 113 -461h-127z" />
    <glyph glyph-name="parenright.tab" horiz-adv-x="300" 
d="M-5 -148c75.333 140 113 293.667 113 461c0 168 -37.667 322 -113 462h127c96 -139.333 144 -293.333 144 -462c0 -168 -48 -321.667 -144 -461h-127z" />
    <glyph glyph-name="bracketleft.tab" horiz-adv-x="300" 
d="M46 -148v924h238v-117h-78v-690h78v-117h-238z" />
    <glyph glyph-name="bracketright.tab" horiz-adv-x="300" 
d="M16 -148v117h78v690h-78v117h238v-924h-238z" />
    <glyph glyph-name="braceleft.tab" horiz-adv-x="300" 
d="M284 -148c-93.333 0 -157.667 18.999 -193 56.999s-44.333 97.333 -27 178l18 88c5.33301 24.667 3.16602 44 -6.50098 58s-29.834 22.667 -60.501 26v112c30.667 3.33301 50.834 12 60.501 26s11.834 33.333 6.50098 58l-18 87c-18 83.333 -9.5 143.333 25.5 180
s99.833 55 194.5 55v-117c-32 -2 -52.667 -9.66699 -62 -23s-11 -37.666 -5 -72.999l18 -98c7.33301 -38 3 -69 -13 -93s-45 -42.667 -87 -56c42 -13.333 71 -32 87 -56s20.333 -55.333 13 -94l-18 -98c-6.66699 -35.333 -5.16699 -60.333 4.5 -75s30.5 -23 62.5 -25v-117z
" />
    <glyph glyph-name="braceright.tab" horiz-adv-x="300" 
d="M16 -148l-0.000976562 117.001c32 2 52.833 10.333 62.5 25s11.167 39.667 4.5 75l-18 98c-7.33301 38.667 -3 70 13 94s45 42.667 87 56c-42 13.333 -71 32 -87 56s-20.333 55 -13 93l18 98c6 35.333 4.33301 59.666 -5 72.999s-30 21 -62 23v117
c94.667 0 159.5 -18.333 194.5 -55s43.5 -96.667 25.5 -180l-18 -87c-5.33301 -24.667 -3.16602 -44 6.50098 -58s29.834 -22.667 60.501 -26v-112c-30.667 -3.33301 -50.834 -12 -60.501 -26s-11.834 -33.333 -6.50098 -58l18 -88c17.333 -80.667 8.33301 -140 -27 -178
s-99.666 -57 -192.999 -57z" />
    <glyph glyph-name="period.tab" horiz-adv-x="300" 
d="M149 -11c-29.333 0 -53.833 9.83301 -73.5 29.5s-29.5 43.5 -29.5 71.5s9.83301 51.833 29.5 71.5s44.167 29.5 73.5 29.5c30 0 55 -9.83301 75 -29.5s30 -43.5 30 -71.5s-10 -51.833 -30 -71.5s-45 -29.5 -75 -29.5z" />
    <glyph glyph-name="comma.tab" horiz-adv-x="300" 
d="M116 -122l-106 41l83 263l167 -59z" />
    <glyph glyph-name="colon.tab" horiz-adv-x="300" 
d="M149 -11c-29.333 0 -53.833 9.83301 -73.5 29.5s-29.5 43.5 -29.5 71.5s9.83301 51.833 29.5 71.5s44.167 29.5 73.5 29.5c30 0 55 -9.83301 75 -29.5s30 -43.5 30 -71.5s-10 -51.833 -30 -71.5s-45 -29.5 -75 -29.5zM149 275c-29.333 0 -53.833 9.66699 -73.5 29
s-29.5 43.333 -29.5 72c0 28 9.83301 51.833 29.5 71.5s44.167 29.5 73.5 29.5c30 0 55 -9.83301 75 -29.5s30 -43.5 30 -71.5c0 -28.667 -10 -52.667 -30 -72s-45 -29 -75 -29z" />
    <glyph glyph-name="semicolon.tab" horiz-adv-x="300" 
d="M99 -122l-106 41l84 263l166 -59zM152 275c-29.333 0 -53.833 9.66699 -73.5 29s-29.5 43.333 -29.5 72c0 28 9.83301 51.833 29.5 71.5s44.167 29.5 73.5 29.5c30 0 55 -9.83301 75 -29.5s30 -43.5 30 -71.5c0 -28.667 -10 -52.667 -30 -72s-45 -29 -75 -29z" />
    <glyph glyph-name="space.tab" horiz-adv-x="300" 
 />
    <glyph glyph-name="dollar.oldtab" 
d="M265 -131l-0.000976562 121.001c-78.667 6 -138.5 29.167 -179.5 69.5s-63.167 93.5 -66.5 159.5h174c6 -50.667 30 -80.667 72 -90v141c-82 12 -141 35 -177 69s-54 84.333 -54 151c0 58.667 20.833 107.334 62.5 146.001s97.834 60.667 168.501 66v87h76v-88
c141.333 -12.667 217.666 -82.334 228.999 -209.001h-171c-6.66699 39.333 -26 63.333 -58 72v-133c78.667 -12 137.834 -33.833 177.501 -65.5s59.5 -80.834 59.5 -147.501c0 -62.667 -20 -115 -60 -157s-99 -66 -177 -72v-120h-76zM403.999 197.001
c0 16.667 -4.33203 29.333 -12.999 38s-25.334 16 -50.001 22v-129c42 9.33301 63 32.333 63 69zM203 504c0 -17.333 4.33301 -30.5 13 -39.5s25 -16.167 49 -21.5v123c-41.333 -8 -62 -28.667 -62 -62z" />
    <glyph glyph-name="Euro.oldtab" 
d="M24 371l-0.000976562 67.998h46c3.33301 82.667 28.5 147.334 75.5 194.001s107.167 70 180.5 70c150 0 228.667 -77.667 236 -233h-161c-2.66699 31.333 -9.66699 54 -21 68s-29.333 21 -54 21c-52 0 -79.333 -40 -82 -120h141l-13 -68h-128v-50h119l-12 -70h-107
c1.33301 -41.333 8.5 -71.166 21.5 -89.499s33.833 -27.5 62.5 -27.5c25.333 0 44.333 7.66699 57 23s20.334 40.333 23.001 75h158c-6 -162.667 -87.667 -244 -245 -244c-75.333 0 -135 22.833 -179 68.5s-68 110.5 -72 194.5h-46v70h46v50h-46z" />
    <glyph glyph-name="sterling.oldtab" 
d="M25 277l0.000976562 118.999h43c-6.66699 28.667 -10 56.667 -10 84c0 70 24.833 124.667 74.5 164s110.834 59 183.501 59c160 0 242.667 -77.333 248 -232h-177c-3.33301 31.333 -9.5 52.833 -18.5 64.5s-24.167 17.5 -45.5 17.5c-45.333 0 -68 -27.667 -68 -83
c0 -22.667 1.66699 -47.334 5 -74.001h149v-119h-133c2 -18 3 -35.667 3 -53c0 -21.333 -3 -40.333 -9 -57c5.33301 -1.33301 12.166 -3.5 20.499 -6.5l20 -7c5 -1.66699 10.667 -3.16699 17 -4.5s12.166 -2 17.499 -2c36 0 55.333 18.667 58 56h174
c-2.66699 -64.667 -21.667 -116.167 -57 -154.5s-81.666 -57.5 -138.999 -57.5c-33.333 0 -68.333 8.5 -105 25.5s-60.334 25.5 -71.001 25.5c-26 0 -40.333 -14 -43 -42h-151c2 32.667 10.833 63.167 26.5 91.5s36.5 50.833 62.5 67.5c6.66699 18.667 10 40.334 10 65.001
c0 14.667 -2.33301 32.334 -7 53.001h-78z" />
    <glyph glyph-name="yen.oldtab" 
d="M63 299v69h134l-170 326h199l88 -204l85 204h174l-166 -326h142v-69h-150v-51h150v-69h-150v-179h-192v179h-144v69h144v51h-144z" />
    <glyph glyph-name="zero.oldtab" 
d="M302 140c28.667 0 49.168 10.667 61.501 32s18.5 54.333 18.5 99v80c0 44.667 -6.33301 77.667 -19 99s-33.667 32 -63 32c-28.667 0 -49.5 -10.5 -62.5 -31.5s-19.5 -53.833 -19.5 -98.5v-82c0 -44 6.66699 -76.667 20 -98s34.666 -32 63.999 -32zM297.001 -12
c-82.667 0 -147.167 25 -193.5 75s-69.5 119 -69.5 207v82c0 86.667 24.5 154.834 73.5 204.501s113.167 74.5 192.5 74.5s143.5 -23.833 192.5 -71.5s73.5 -115.834 73.5 -204.501v-81c0 -88.667 -24 -158.5 -72 -209.5s-113.667 -76.5 -197 -76.5z" />
    <glyph glyph-name="one.oldtab" 
d="M262 0v430l-175 -114v161l201 142h165v-619h-191z" />
    <glyph glyph-name="two.oldtab" 
d="M25 0l-0.000976562 27l227 218c38 36 65.5 67.167 82.5 93.5s25.5 52.5 25.5 78.5c0 46.667 -22.333 70 -67 70c-47.333 0 -75 -34.667 -83 -104h-172c4.66699 77.333 30.334 138 77.001 182s110.334 66 191.001 66c77.333 0 137.666 -18 180.999 -54s65 -83.667 65 -143
c0 -40 -11 -76.667 -33 -110s-55.667 -71.333 -101 -114l-77 -71h215v-139h-531z" />
    <glyph glyph-name="three.oldtab" 
d="M297 -105c-90.667 0 -158.833 21.667 -204.5 65s-69.5 103 -71.5 179h173c4.66699 -68 37.667 -102 99 -102c29.333 0 51.5 7.66699 66.5 23s22.5 36.666 22.5 63.999c0 58 -30.667 87 -92 87h-55v121h52c29.333 0 51.666 7.5 66.999 22.5s23 35.5 23 61.5
c0 22.667 -6.5 41 -19.5 55s-31.833 21 -56.5 21c-55.333 0 -85.666 -32 -90.999 -96h-171c3.33301 69.333 28.833 125.833 76.5 169.5s111.5 65.5 191.5 65.5c77.333 0 137.5 -17.5 180.5 -52.5s64.5 -82.5 64.5 -142.5c0 -80 -37.333 -131.667 -112 -155
c39.333 -8.66699 70.833 -27 94.5 -55s35.5 -63.333 35.5 -106c0 -69.333 -24 -124.166 -72 -164.499s-115 -60.5 -201 -60.5z" />
    <glyph glyph-name="four.oldtab" 
d="M319 -92v132h-302v63l255 516h227v-452h75v-127h-75v-132h-180zM176 167h147v299z" />
    <glyph glyph-name="five.oldtab" 
d="M294 -104c-84.667 0 -148.5 19.999 -191.5 59.999s-65.5 96.333 -67.5 169h170c2.66699 -28 10.5 -49.333 23.5 -64s34.5 -22 64.5 -22c28 0 49.167 9.5 63.5 28.5s21.5 45.167 21.5 78.5c0 32.667 -8.33301 57.834 -25 75.501s-39.667 26.5 -69 26.5
c-47.333 0 -83.666 -17.667 -108.999 -53h-113l13 424h444v-146h-305l-5 -169c35.333 50.667 86.333 76 153 76c62 0 110.667 -20.333 146 -61s53 -95.667 53 -165c0 -80 -23.333 -143 -70 -189s-112.334 -69 -197.001 -69z" />
    <glyph glyph-name="six.oldtab" 
d="M315 -12c-92.667 0 -162.167 27.999 -208.5 83.999s-69.5 134.333 -69.5 235v74c0 108 26.167 192.333 78.5 253s122.5 91 210.5 91c72 0 128.5 -17.167 169.5 -51.5s63.5 -86.5 67.5 -156.5h-166c-7.33301 44.667 -31.333 67 -72 67c-72 0 -108.333 -70.667 -109 -212
c35.333 55.333 85.666 83 150.999 83c61.333 0 111 -18.333 149 -55s57 -91 57 -163c0 -75.333 -23.167 -135.666 -69.5 -180.999s-109.166 -68 -188.499 -68zM314 127.999c26.667 0 48.8311 9.5 66.498 28.5s26.5 43.5 26.5 73.5c0 31.333 -8.66699 56.333 -26 75
s-39.666 28 -66.999 28s-50.166 -9 -68.499 -27s-27.5 -42 -27.5 -72c0 -32 9 -57.667 27 -77s41 -29 69 -29z" />
    <glyph glyph-name="seven.oldtab" 
d="M104 -92l211 554h-277v157h528v-22l-258 -689h-204z" />
    <glyph glyph-name="eight.oldtab" 
d="M300 -12c-82.667 0 -148.167 18.498 -196.5 55.498s-72.5 89.5 -72.5 157.5c0 40.667 11 76 33 106s52.667 52.667 92 68c-65.333 28.667 -98 78.334 -98 149.001c0 62.667 23.333 111.834 70 147.501s104.667 53.5 174 53.5c70.667 0 128.667 -17.667 174 -53
s68 -84.333 68 -147c0 -70 -32.333 -119.667 -97 -149c39.333 -14.667 69.5 -36.5 90.5 -65.5s31.5 -63.833 31.5 -104.5c0 -68 -24.167 -121.333 -72.5 -160s-113.833 -58 -196.5 -58zM301 126.998c27.333 0 49.499 8.33301 66.499 25s25.5 39 25.5 67
s-8.33301 50.333 -25 67s-38.667 25 -66 25s-49.666 -8.16699 -66.999 -24.5s-26 -38.833 -26 -67.5c0 -28 8.5 -50.333 25.5 -67s39.167 -25 66.5 -25zM302.999 428.998c22.667 0 41.5 7.5 56.5 22.5s22.5 34.833 22.5 59.5c0 24 -7.66699 43.5 -23 58.5
s-34.333 22.5 -57 22.5c-22 0 -40.667 -7.5 -56 -22.5s-23 -34.5 -23 -58.5c0 -24.667 7.66699 -44.5 23 -59.5s34.333 -22.5 57 -22.5z" />
    <glyph glyph-name="nine.oldtab" 
d="M282 -106c-76 0 -135.333 18.168 -178 54.501s-66 89.833 -70 160.5h164c6.66699 -48.667 34.667 -73 84 -73c36.667 0 62.667 16 78 48s23.666 84 24.999 156c-31.333 -50.667 -80.666 -76 -147.999 -76c-61.333 0 -111.666 18.333 -150.999 55s-59 90.667 -59 162
c0 75.333 23.667 135.833 71 181.5s110.666 68.5 189.999 68.5c92 0 160.833 -27.833 206.5 -83.5s68.5 -133.834 68.5 -234.501v-76c0 -110 -24.167 -194.667 -72.5 -254s-117.833 -89 -208.5 -89zM289 288.001c27.333 0 50.002 9 68.002 27s27 42 27 72
c0 32 -9 57.667 -27 77s-40.667 29 -68 29c-26.667 0 -48.834 -9.5 -66.501 -28.5s-26.5 -43.5 -26.5 -73.5c0 -31.333 8.66699 -56.333 26 -75s39.666 -28 66.999 -28z" />
    <glyph glyph-name="zero.num" horiz-adv-x="422" 
d="M211 433c36.667 0 55.001 30.333 55.001 91v8c0 31.333 -4.5 54 -13.5 68s-23.167 21 -42.5 21c-18.667 0 -32.167 -7 -40.5 -21s-12.5 -37 -12.5 -69v-7c0 -31.333 4.16699 -54.333 12.5 -69s22.166 -22 41.499 -22zM208.001 332c-59.333 0 -105 16.6699 -137 50.0029
s-48 80.333 -48 141v8c0 59.333 17.5 105.666 52.5 138.999s80.167 50 135.5 50s100.5 -15.833 135.5 -47.5s52.5 -77.834 52.5 -138.501v-7c0 -60.667 -17 -108.334 -51 -143.001s-80.667 -52 -140 -52z" />
    <glyph glyph-name="one.num" horiz-adv-x="286" 
d="M102 339v248l-82 -46v107l102 67h114v-376h-134z" />
    <glyph glyph-name="two.num" horiz-adv-x="353" 
d="M5 339l0.000976562 16.999l128 133c24 24.667 41.333 44.334 52 59.001s16 29 16 43c0 21.333 -10.333 32 -31 32c-22.667 0 -36 -17.333 -40 -52h-120c1.33301 48 16.666 84.833 45.999 110.5s69.333 38.5 120 38.5s89.167 -11 115.5 -33s39.5 -51 39.5 -87
c0 -41.333 -25.667 -85.333 -77 -132l-35 -34h113v-95h-327z" />
    <glyph glyph-name="three.num" horiz-adv-x="374" 
d="M186 332c-107.333 0 -163.333 44.668 -168 134.001h116c3.33301 -28 18.333 -42 45 -42c26 0 39 11.333 39 34s-15 34 -45 34h-30v74h30c30 0 45 11.333 45 34c0 19.333 -11.333 29 -34 29c-24 0 -38 -12.667 -42 -38h-116c3.33301 39.333 18.5 70.666 45.5 93.999
s65.5 35 115.5 35c49.333 0 87.666 -9.16699 114.999 -27.5s41 -43.833 41 -76.5c0 -41.333 -22.667 -68.333 -68 -81c22.667 -3.33301 41 -12.333 55 -27s21 -33 21 -55c0 -37.333 -14.167 -66.833 -42.5 -88.5s-69.166 -32.5 -122.499 -32.5z" />
    <glyph glyph-name="four.num" horiz-adv-x="394" 
d="M199 339v70h-187v49l156 257h159v-219h48v-87h-48v-70h-128zM126 496h77v132z" />
    <glyph glyph-name="five.num" horiz-adv-x="367" 
d="M179 332c-52.667 0 -92.168 11.5 -118.501 34.5s-40.166 53.5 -41.499 91.5h120c3.33301 -19.333 16 -29 38 -29c23.333 0 35 13.667 35 41c0 26.667 -12.667 40 -38 40c-20 0 -33.667 -8 -41 -24h-102l11 229h281v-93h-190l-3 -80c21.333 32 54 48 98 48
c36 0 64.5 -10.167 85.5 -30.5s31.5 -49.5 31.5 -87.5c0 -43.333 -14.5 -77.5 -43.5 -102.5s-69.833 -37.5 -122.5 -37.5z" />
    <glyph glyph-name="six.num" horiz-adv-x="391" 
d="M205 332c-62 0 -107.832 16.668 -137.499 50.001s-44.5 79.333 -44.5 138v11c0 58 17.167 104 51.5 138s78.833 51 133.5 51c96 0 147.667 -39.333 155 -118h-121c-2.66699 16.667 -13.334 25 -32.001 25c-34 0 -52 -28.667 -54 -86c18 27.333 47.333 41 88 41
c37.333 0 67.833 -9.5 91.5 -28.5s35.5 -47.833 35.5 -86.5c0 -40.667 -14.833 -73.334 -44.5 -98.001s-70.167 -37 -121.5 -37zM203.001 420.001c12.667 0 22.667 4.16699 30 12.5s11 19.166 11 32.499c0 12.667 -3.83301 23 -11.5 31s-17.5 12 -29.5 12
s-21.667 -4.16699 -29 -12.5s-11 -18.5 -11 -30.5c0 -13.333 3.5 -24.166 10.5 -32.499s16.833 -12.5 29.5 -12.5z" />
    <glyph glyph-name="seven.num" horiz-adv-x="343" 
d="M65 339l102 272h-148v104h314v-13l-136 -363h-132z" />
    <glyph glyph-name="eight.num" horiz-adv-x="380" 
d="M190 332c-55.333 0 -97.668 9.66797 -127.001 29.001s-44 47.333 -44 84c0 46 23 76.333 69 91c-35.333 14.667 -53 40 -53 76c0 34 14.833 60.5 44.5 79.5s66.834 28.5 111.501 28.5c46.667 0 84.334 -9.33301 113.001 -28s43 -45 43 -79c0 -36 -17.667 -61.333 -53 -76
c44.667 -14 67 -43.333 67 -88c0 -36.667 -14.833 -65.334 -44.5 -86.001s-71.834 -31 -126.501 -31zM190.998 421.001c12 0 21.833 3.50098 29.5 10.501s11.5 16.167 11.5 27.5s-3.83301 20.666 -11.5 27.999s-17.5 11 -29.5 11s-22 -3.5 -30 -10.5s-12 -16.5 -12 -28.5
s4 -21.333 12 -28s18 -10 30 -10zM190.998 566.002c10.667 0 19.5 3.16699 26.5 9.5s10.5 14.833 10.5 25.5c0 10 -3.5 18.167 -10.5 24.5s-15.833 9.5 -26.5 9.5c-10 0 -18.667 -3.16699 -26 -9.5s-11 -14.5 -11 -24.5s3.66699 -18.333 11 -25s16 -10 26 -10z" />
    <glyph glyph-name="nine.num" horiz-adv-x="391" 
d="M186 332c-48 0 -85.8359 10.333 -113.503 31s-43.167 50 -46.5 88h122c3.33301 -16.667 15 -25 35 -25c34 0 51.667 28 53 84c-19.333 -26 -47 -39 -83 -39c-40 0 -72 9.33301 -96 28s-36 48 -36 88c0 40.667 14.833 73.167 44.5 97.5s69.834 36.5 120.501 36.5
c60.667 0 106.334 -17 137.001 -51s46 -79.667 46 -137v-10c0 -60.667 -15.667 -107.667 -47 -141s-76.666 -50 -135.999 -50zM185.997 545c12.667 0 22.667 3.99902 30 11.999s11 18 11 30c0 14 -3.66699 25.167 -11 33.5s-17.333 12.5 -30 12.5
c-12 0 -21.667 -4.16699 -29 -12.5s-11 -19.166 -11 -32.499c0 -12.667 3.66699 -23 11 -31s17 -12 29 -12z" />
    <glyph glyph-name="zero.den" horiz-adv-x="422" 
d="M211 94c36.667 0 55.001 30.332 55.001 90.999v7c0 32 -4.5 55 -13.5 69s-23.167 21 -42.5 21c-18.667 0 -32.167 -7 -40.5 -21s-12.5 -37 -12.5 -69v-8c0 -31.333 4.16699 -54.166 12.5 -68.499s22.166 -21.5 41.499 -21.5zM208.001 -7.00098
c-59.333 0 -105 16.668 -137 50.001s-48 80.333 -48 141v8c0 59.333 17.5 105.666 52.5 138.999s80.167 50 135.5 50s100.5 -15.833 135.5 -47.5s52.5 -78.167 52.5 -139.5v-7c0 -60.667 -17 -108.167 -51 -142.5s-80.667 -51.5 -140 -51.5z" />
    <glyph glyph-name="one.den" horiz-adv-x="287" 
d="M102 0v248l-82 -46v107l102 67h114v-376h-134z" />
    <glyph glyph-name="two.den" horiz-adv-x="354" 
d="M5 0l0.000976562 16.998l128 133c45.333 45.333 68 79 68 101s-10.333 33 -31 33c-22.667 0 -36 -17.667 -40 -53h-120c1.33301 48.667 16.666 85.834 45.999 111.501s69.333 38.5 120 38.5s89.167 -11.167 115.5 -33.5s39.5 -51.166 39.5 -86.499
c0 -24 -6.5 -46.167 -19.5 -66.5s-32.167 -42.5 -57.5 -66.5l-35 -33h113v-95h-327z" />
    <glyph glyph-name="three.den" horiz-adv-x="374" 
d="M186 -7c-107.333 0 -163.331 44.333 -167.998 133h116c3.33301 -27.333 18.333 -41 45 -41c26 0 39 11.333 39 34c0 22 -15 33 -45 33h-30v74h30c30 0 45 11.333 45 34c0 20 -11.333 30 -34 30c-24 0 -38 -12.667 -42 -38h-116
c3.33301 38.667 18.666 69.834 45.999 93.501s65.666 35.5 114.999 35.5s87.666 -9.33301 114.999 -28s41 -44.334 41 -77.001c0 -42 -22.667 -68.667 -68 -80c22.667 -3.33301 41 -12.333 55 -27s21 -33 21 -55c0 -37.333 -14.167 -66.833 -42.5 -88.5
s-69.166 -32.5 -122.499 -32.5z" />
    <glyph glyph-name="four.den" horiz-adv-x="395" 
d="M199 0v70h-187v49l156 257h159v-219h48v-87h-48v-70h-128zM126 157h77v131z" />
    <glyph glyph-name="five.den" horiz-adv-x="367" 
d="M179 -7c-52.667 0 -92.1689 11.498 -118.502 34.498s-40.166 53.5 -41.499 91.5h120c3.33301 -20 16 -30 38 -30c10.667 0 19.167 3.83301 25.5 11.5s9.5 17.834 9.5 30.501c0 26 -12.667 39 -38 39c-20 0 -33.667 -7.66699 -41 -23h-102l11 229h281v-93h-190l-3 -80
c20.667 31.333 53.334 47 98.001 47c36 0 64.5 -10.167 85.5 -30.5s31.5 -49.166 31.5 -86.499c0 -43.333 -14.5 -77.5 -43.5 -102.5s-69.833 -37.5 -122.5 -37.5z" />
    <glyph glyph-name="six.den" horiz-adv-x="392" 
d="M205 -7c-62 0 -107.832 16.667 -137.499 50s-44.5 79.333 -44.5 138v11c0 58 17.167 104 51.5 138s78.833 51 133.5 51c96 0 147.667 -39.333 155 -118h-121c-2.66699 16.667 -13.334 25 -32.001 25c-34 0 -52 -28.667 -54 -86c18 27.333 47.333 41 88 41
c37.333 0 67.833 -9.5 91.5 -28.5s35.5 -48.167 35.5 -87.5c0 -40.667 -14.833 -73.167 -44.5 -97.5s-70.167 -36.5 -121.5 -36.5zM203.001 81c12.667 0 22.667 4 30 12s11 18.667 11 32c0 12.667 -3.83301 23 -11.5 31s-17.5 12 -29.5 12s-21.667 -4 -29 -12
s-11 -18.333 -11 -31c0 -13.333 3.5 -24 10.5 -32s16.833 -12 29.5 -12z" />
    <glyph glyph-name="seven.den" horiz-adv-x="344" 
d="M65 0l102 272h-148v104h314v-14l-136 -362h-132z" />
    <glyph glyph-name="eight.den" horiz-adv-x="381" 
d="M190 -7c-55.333 0 -97.668 9.50098 -127.001 28.501s-44 46.833 -44 83.5c0 46 23 76.333 69 91c-35.333 15.333 -53 41 -53 77c0 33.333 14.833 59.666 44.5 78.999s66.834 29 111.501 29c46.667 0 84.334 -9.33301 113.001 -28s43 -45.334 43 -80.001
c0 -36 -17.667 -61.333 -53 -76c44.667 -13.333 67 -42.666 67 -87.999c0 -36.667 -14.833 -65.167 -44.5 -85.5s-71.834 -30.5 -126.501 -30.5zM190.998 81.001c11.333 0 21 3.66895 29 11.002s12 16.666 12 27.999s-3.83301 20.666 -11.5 27.999s-17.5 11 -29.5 11
s-22 -3.5 -30 -10.5s-12 -16.5 -12 -28.5s4 -21.5 12 -28.5s18 -10.5 30 -10.5zM190.998 227.003c10.667 0 19.5 3.16699 26.5 9.5s10.5 14.833 10.5 25.5c0 10 -3.5 18.167 -10.5 24.5s-15.833 9.5 -26.5 9.5c-10 0 -18.667 -3.33301 -26 -10s-11 -15 -11 -25
s3.66699 -18.167 11 -24.5s16 -9.5 26 -9.5z" />
    <glyph glyph-name="nine.den" horiz-adv-x="392" 
d="M186 -7c-48 0 -85.8369 10.333 -113.504 31s-43.167 50 -46.5 88h122c3.33301 -16.667 15 -25 35 -25c34 0 51.667 27.667 53 83c-20 -26 -47.667 -39 -83 -39c-39.333 0 -71.166 9.5 -95.499 28.5s-36.5 48.167 -36.5 87.5c0 40.667 14.833 73.167 44.5 97.5
s69.834 36.5 120.501 36.5c60.667 0 106.334 -16.833 137.001 -50.5s46 -79.167 46 -136.5v-10c0 -60.667 -15.667 -107.667 -47 -141s-76.666 -50 -135.999 -50zM185.996 206c12.667 0 22.667 4.00098 30 12.001s11 18 11 30c0 13.333 -3.66699 24.166 -11 32.499
s-17.333 12.5 -30 12.5c-12 0 -21.667 -4 -29 -12s-11 -18.667 -11 -32c0 -12.667 3.66699 -23 11 -31s17 -12 29 -12z" />
    <glyph glyph-name="zero.sub" horiz-adv-x="422" 
d="M211 -26c36.667 0 55.001 30.333 55.001 91v8c0 31.333 -4.5 54 -13.5 68s-23.167 21 -42.5 21c-18.667 0 -32.167 -7 -40.5 -21s-12.5 -37 -12.5 -69v-7c0 -31.333 4.16699 -54.333 12.5 -69s22.166 -22 41.499 -22zM208.001 -127c-59.333 0 -105 16.6699 -137 50.0029
s-48 80.333 -48 141v8c0 59.333 17.5 105.666 52.5 138.999s80.167 50 135.5 50s100.5 -15.833 135.5 -47.5s52.5 -77.834 52.5 -138.501v-7c0 -60.667 -17 -108.334 -51 -143.001s-80.667 -52 -140 -52z" />
    <glyph glyph-name="one.sub" horiz-adv-x="287" 
d="M102 -120v248l-82 -46v107l102 67h114v-376h-134z" />
    <glyph glyph-name="two.sub" horiz-adv-x="354" 
d="M5 -120l0.000976562 16.999l128 133c24 24.667 41.333 44.334 52 59.001s16 29 16 43c0 21.333 -10.333 32 -31 32c-22.667 0 -36 -17.333 -40 -52h-120c1.33301 48 16.666 84.833 45.999 110.5s69.333 38.5 120 38.5s89.167 -11 115.5 -33s39.5 -51 39.5 -87
c0 -41.333 -25.667 -85.333 -77 -132l-35 -34h113v-95h-327z" />
    <glyph glyph-name="three.sub" horiz-adv-x="374" 
d="M186 -127c-107.333 0 -163.333 44.668 -168 134.001h116c3.33301 -28 18.333 -42 45 -42c26 0 39 11.333 39 34s-15 34 -45 34h-30v74h30c30 0 45 11.333 45 34c0 19.333 -11.333 29 -34 29c-24 0 -38 -12.667 -42 -38h-116c3.33301 39.333 18.5 70.666 45.5 93.999
s65.5 35 115.5 35c49.333 0 87.666 -9.16699 114.999 -27.5s41 -43.833 41 -76.5c0 -41.333 -22.667 -68.333 -68 -81c22.667 -3.33301 41 -12.333 55 -27s21 -33 21 -55c0 -37.333 -14.167 -66.833 -42.5 -88.5s-69.166 -32.5 -122.499 -32.5z" />
    <glyph glyph-name="four.sub" horiz-adv-x="395" 
d="M199 -120v70h-187v49l156 257h159v-219h48v-87h-48v-70h-128zM126 37h77v132z" />
    <glyph glyph-name="five.sub" horiz-adv-x="367" 
d="M179 -127c-52.667 0 -92.168 11.5 -118.501 34.5s-40.166 53.5 -41.499 91.5h120c3.33301 -19.333 16 -29 38 -29c23.333 0 35 13.667 35 41c0 26.667 -12.667 40 -38 40c-20 0 -33.667 -8 -41 -24h-102l11 229h281v-93h-190l-3 -80c21.333 32 54 48 98 48
c36 0 64.5 -10.167 85.5 -30.5s31.5 -49.5 31.5 -87.5c0 -43.333 -14.5 -77.5 -43.5 -102.5s-69.833 -37.5 -122.5 -37.5z" />
    <glyph glyph-name="six.sub" horiz-adv-x="392" 
d="M205 -127c-62 0 -107.832 16.668 -137.499 50.001s-44.5 79.333 -44.5 138v11c0 58 17.167 104 51.5 138s78.833 51 133.5 51c96 0 147.667 -39.333 155 -118h-121c-2.66699 16.667 -13.334 25 -32.001 25c-34 0 -52 -28.667 -54 -86c18 27.333 47.333 41 88 41
c37.333 0 67.833 -9.5 91.5 -28.5s35.5 -47.833 35.5 -86.5c0 -40.667 -14.833 -73.334 -44.5 -98.001s-70.167 -37 -121.5 -37zM203.001 -38.999c12.667 0 22.667 4.16699 30 12.5s11 19.166 11 32.499c0 12.667 -3.83301 23 -11.5 31s-17.5 12 -29.5 12
s-21.667 -4.16699 -29 -12.5s-11 -18.5 -11 -30.5c0 -13.333 3.5 -24.166 10.5 -32.499s16.833 -12.5 29.5 -12.5z" />
    <glyph glyph-name="seven.sub" horiz-adv-x="344" 
d="M65 -120l102 272h-148v104h314v-13l-136 -363h-132z" />
    <glyph glyph-name="eight.sub" horiz-adv-x="381" 
d="M190 -127c-55.333 0 -97.668 9.66797 -127.001 29.001s-44 47.333 -44 84c0 46 23 76.333 69 91c-35.333 14.667 -53 40 -53 76c0 34 14.833 60.5 44.5 79.5s66.834 28.5 111.501 28.5c46.667 0 84.334 -9.33301 113.001 -28s43 -45 43 -79
c0 -36 -17.667 -61.333 -53 -76c44.667 -14 67 -43.333 67 -88c0 -36.667 -14.833 -65.334 -44.5 -86.001s-71.834 -31 -126.501 -31zM190.998 -37.999c12 0 21.833 3.50098 29.5 10.501s11.5 16.167 11.5 27.5s-3.83301 20.666 -11.5 27.999s-17.5 11 -29.5 11
s-22 -3.5 -30 -10.5s-12 -16.5 -12 -28.5s4 -21.333 12 -28s18 -10 30 -10zM190.998 107.002c10.667 0 19.5 3.16699 26.5 9.5s10.5 14.833 10.5 25.5c0 10 -3.5 18.167 -10.5 24.5s-15.833 9.5 -26.5 9.5c-10 0 -18.667 -3.16699 -26 -9.5s-11 -14.5 -11 -24.5
s3.66699 -18.333 11 -25s16 -10 26 -10z" />
    <glyph glyph-name="nine.sub" horiz-adv-x="392" 
d="M186 -127c-48 0 -85.8359 10.333 -113.503 31s-43.167 50 -46.5 88h122c3.33301 -16.667 15 -25 35 -25c34 0 51.667 28 53 84c-19.333 -26 -47 -39 -83 -39c-40 0 -72 9.33301 -96 28s-36 48 -36 88c0 40.667 14.833 73.167 44.5 97.5s69.834 36.5 120.501 36.5
c60.667 0 106.334 -17 137.001 -51s46 -79.667 46 -137v-10c0 -60.667 -15.667 -107.667 -47 -141s-76.666 -50 -135.999 -50zM185.997 86c12.667 0 22.667 3.99902 30 11.999s11 18 11 30c0 14 -3.66699 25.167 -11 33.5s-17.333 12.5 -30 12.5
c-12 0 -21.667 -4.16699 -29 -12.5s-11 -19.166 -11 -32.499c0 -12.667 3.66699 -23 11 -31s17 -12 29 -12z" />
    <glyph glyph-name="plus.sub" horiz-adv-x="357" 
d="M131 -71v98h-96v93h96v99h95v-99h96v-93h-96v-98h-95z" />
    <glyph glyph-name="minus.sub" horiz-adv-x="357" 
d="M35 27v93h287v-93h-287z" />
    </font>
</defs>
</svg>
